Всегда рабочее зеркало просто перед .vidak.icu напиши любое слово или цифру, Пример http://7oe.vidak.icu

>

7.4

iTunes

7.4

2 сезон

9.4

1 сезон

1

7.4

2 сезон

7.2

iTunes

6.0

MVO

13

6.1

iTunes

8.3

Пиратка

30

ULTIMATE

pack

9.9

Лицензия

ВАЖНО

ИГРА 18+

pack

7.3

RePack

MK11

7.7

RePack

jed

7.8

RePack

fifa19

8.5

RePack

RDR2

RePack

NEED FOR SPEED™ PAYBACK

1 сезон

9 сезон

Бесстыжие 9 сезон

Все сериалы

все сериалы на PB.wtf

RePack

FAR CRY 5

Anonymous, доброе утро, мы катастрофически не успеваем собрать деньги на оплату серверов, помогите нам пожалуйста 5,10,15р., для нас важна любая помощь . В качестве благодарности мы отключим Вам всю рекламу на сайте (укажите свой ник в строку Ваше имя)!

×
  
Magnet ссылка

Очарование / Fascination (Жан Роллен / Jean Rollin) [1979, Ужасы, BDRip 720p от KORSAR] [AVO + VO] pb.wtf

Очарование через торрент pb.wtf

Размер: 2.46 GB | Добавлен: 2 года 6 мес. назад | Торрент скачан:5 раз
Смотреть онлайн Очарование | Скачать    Ребята, помогите собрать деньги на оплату серверов!!!

10-07-2019 20:29 Очарование Скачать торрент  

Название: Очарование
Оригинальное название: Fascination
Год выпуска: 1979
Страна: Франция, Comex Productions Films ABC
Жанр: Ужасы
Продолжительность: 01:21:31
Перевод: Авторский, любительский одноголосый

Режиссер: Жан Роллен
В ролях: Франка Мэй, Брижит Лаэ, Жан-Мари Лемар, Fanny Magier, Мюриэль Монтоссэ, Софи Ноэль, Эвелин Томас, Агнес Берт, Сирил Вэл, Мириам Уотто, Жак Сенсо, Джо Де Лара, Жак Марбёф

Описание: В начале XX века лекарством от малокровия служила бычья кровь. Молодые представители буржуазии получали от этого удовольствие и организовали секретное общество любителей человеческой крови... Банда воров не поделила награбленное золото, и один из них, Марк, убегает со всеми деньгами. Спасаясь от преследования, он прячется в готическом замке, в котором находит двух юных, очаровательных и сексуальных девушек - Еву и Элизабет. По их словам, замок им не принадлежит, они, также как и Марк, здесь незваные гости. Только цель у них совсем другая: устроить полуночную вечеринку, пока в это мрачное строение не вернулись его хозяева, маркиз со свитой, отъехавший по делам в Париж. Девушки совсем не против того, чтобы вооруженный грабитель составил им компанию, более того, они открыто с ним флиртуют и предлагают Марку остаться, как минимум, до захода солнца. Делать нечего: ведь к замку приближаются его преследователи, и как только воришка приоткрывает окно, гремят выстрелы. Это место кажется спасительным убежищем, но… Что имеет в виду Элазибет, говоря: «Когда стемнеет, вы узнаете, почему мы здесь только вдвоем с Евой»?...

rating

Качество: BDRip 720p
Формат: MKV
Видео: MPEG-4 AVC, 3547 Кбит/сек, 1190x720, 23,976 кадра/сек
Аудио #1: AC3, 2 ch, 192 Кбит/сек | Русский, авторский (одноголосый закадровый) Антон Алексеев
Аудио #2: AC3, 2 ch, 192 Кбит/сек | Русский, любительский (одноголосый закадровый) Миллиган
Аудио #3: AC3, 2 ch, 384 Кбит/сек | Французский, оригинал
Субтитры: Русские, английские
Навигация по главам: Есть

Релиз от:
x264 [info]: frame I:592 Avg QP:11.23 size: 99783
x264 [info]: frame P:21381 Avg QP:14.56 size: 37943
x264 [info]: frame B:95295 Avg QP:16.27 size: 13620
----------------------------------------------------
Общее
Уникальный идентификатор : 221394662559869291696388473124974344363 (0xA68F0F9EB0738AF59618B4327FA1B8AB)
Полное имя : I:\To407\Очарование.1979.BDRip.720p.KORSAR.mkv
Формат : Matroska
Версия формата : Version 2
Размер файла : 2,46 Гбайт
Продолжительность : 1 ч. 21 м.
Общий поток : 4317 Кбит/сек
Дата кодирования : UTC 2018-09-24 06:08:01
Программа кодирования : mkvmerge v5.8.0 ('No Sleep / Pillow') built on Sep 2 2012 15:37:04
Библиотека кодирования : libebml v1.2.3 + libmatroska v1.3.0

Видео
Идентификатор : 1
Формат : AVC
Формат/Информация : Advanced Video Codec
Профиль формата : High@L4.1
Настройки формата : CABAC / 9 Ref Frames
Параметр CABAC формата : Да
Параметр RefFrames формата : 9 кадров
Идентификатор кодека : V_MPEG4/ISO/AVC
Продолжительность : 1 ч. 21 м.
Битрейт : 3547 Кбит/сек
Ширина : 1190 пикселей
Высота : 720 пикселей
Соотношение сторон : 5:3
Режим частоты кадров : Постоянный
Частота кадров : 23,976 (24000/1001) кадра/сек
Цветовое пространство : YUV
Субдискретизация насыщенности : 4:2:0
Битовая глубина : 8 бит
Тип развёртки : Прогрессивная
Бит/(Пиксели*Кадры) : 0.173
Размер потока : 1,97 Гбайт (80%)
Заголовок : RIP | MZMA
Библиотека кодирования : x264 core 152 r2851kMod ba24899
Настройки программы : cabac=1 / ref=9 / deblock=1:-2:-2 / analyse=0x3:0x113 / me=umh / subme=11 / psy=1 / fade_compensate=0.00 / psy_rd=1.00:0.00 / mixed_ref=1 / me_range=48 / chroma_me=1 / trellis=2 / 8x8dct=1 / cqm=0 / deadzone=21,11 / fast_pskip=0 / chroma_qp_offset=-2 / threads=6 / lookahead_threads=1 / sliced_threads=0 / nr=0 / decimate=0 / interlaced=0 / bluray_compat=0 / constrained_intra=0 / bframes=16 / b_pyramid=2 / b_adapt=2 / b_bias=0 / direct=3 / weightb=1 / open_gop=0 / weightp=2 / keyint=240 / keyint_min=23 / scenecut=40 / intra_refresh=0 / rc_lookahead=40 / rc=2pass / mbtree=0 / bitrate=3547 / ratetol=1.0 / qcomp=0.60 / qpmin=0 / qpmax=69 / qpstep=4 / cplxblur=20.0 / qblur=0.5 / vbv_maxrate=50000 / vbv_bufsize=62500 / nal_hrd=none / filler=0 / ip_ratio=1.40 / pb_ratio=1.30 / aq=3:0.90
Язык : French
По умолчанию : Да
Принудительно : Нет
Цветовой диапазон : Limited
Основные цвета : BT.709
Характеристики трансфера : BT.709
Коэффициенты матрицы : BT.709

Аудио #1
Идентификатор : 2
Формат : AC-3
Формат/Информация : Audio Coding 3
Идентификатор кодека : A_AC3
Продолжительность : 1 ч. 21 м.
Вид битрейта : Постоянный
Битрейт : 192 Кбит/сек
Каналы : 2 канала
Расположение каналов : Front: L R
Частота : 48,0 КГц
Частота кадров : 31,250 кадров/сек (1536 SPF)
Битовая глубина : 16 бит
Метод сжатия : С потерями
Размер потока : 112 Мбайт (4%)
Заголовок : AVO | А. Алексеев
Язык : Russian
По умолчанию : Да
Принудительно : Нет

Аудио #2
Идентификатор : 3
Формат : AC-3
Формат/Информация : Audio Coding 3
Идентификатор кодека : A_AC3
Продолжительность : 1 ч. 21 м.
Вид битрейта : Постоянный
Битрейт : 192 Кбит/сек
Каналы : 2 канала
Расположение каналов : Front: L R
Частота : 48,0 КГц
Частота кадров : 31,250 кадров/сек (1536 SPF)
Битовая глубина : 16 бит
Метод сжатия : С потерями
Размер потока : 112 Мбайт (4%)
Заголовок : VO | Миллиган
Язык : Russian
По умолчанию : Нет
Принудительно : Нет

Аудио #3
Идентификатор : 4
Формат : AC-3
Формат/Информация : Audio Coding 3
Идентификатор кодека : A_AC3
Продолжительность : 1 ч. 21 м.
Вид битрейта : Постоянный
Битрейт : 384 Кбит/сек
Каналы : 2 канала
Расположение каналов : Front: L R
Частота : 48,0 КГц
Частота кадров : 31,250 кадров/сек (1536 SPF)
Битовая глубина : 16 бит
Метод сжатия : С потерями
Размер потока : 224 Мбайт (9%)
Заголовок : Original
Язык : French
По умолчанию : Нет
Принудительно : Нет

Текст #1
Идентификатор : 5
Формат : UTF-8
Идентификатор кодека : S_TEXT/UTF8
Идентификатор кодека/Информация : UTF-8 Plain Text
Язык : Russian
По умолчанию : Нет
Принудительно : Нет

Текст #2
Идентификатор : 6
Формат : UTF-8
Идентификатор кодека : S_TEXT/UTF8
Идентификатор кодека/Информация : UTF-8 Plain Text
Язык : English
По умолчанию : Нет
Принудительно : Нет

Меню
00:00:00.000 : en:01. Opening Credits
00:06:18.304 : en:02. The Abattoir
00:11:34.040 : en:03. The Chateau
00:16:48.969 : en:04. Two Girls
00:23:05.785 : en:05. A Good Reason To Stay?
00:33:49.594 : en:06. Gunfire
00:40:54.392 : en:07. Sex And Death
00:47:56.902 : en:08. Helene's Arrival
00:53:03.630 : en:09. The Other Guests Arrive
01:06:41.486 : en:10. No Escape
01:11:48.828 : en:11. Blood Lust
01:15:37.673 : en:12. Truth And Lies
01:20:05.950 : en:13. End Of Film
скриншот  скриншот  скриншот  скриншот  скриншот  скриншот  скриншот  скриншот  
pb.wtf



Скачать Очарование через торрент https://d.radikal.ru/d14/1809/6e/96a54dff4425.png Скачать, смотреть онлайн Очарование бесплантно в хорошем качестве Описание: В начале XX века лекарством от малокровия служила бычья кровь. Молодые представители буржуазии получали от этого удовольствие и ... 10 10 1
Info! Золотая раздача, скачанное не засчитывается.
Торрент: Зарегистрирован [2019-07-10 20:29] · скачан: 5 раз
Статус: √ проверено
Размер: 2.46 GB
Как cкачать? Как скачать Очарование через торрент | UTorrent

% Раздел Тема Автор DL S | L
Порно фильмы с русским переводом [ 1.41 GB ] Очарование греха / The Fascination of Sin / Luxure & Decadence [2010 Feature DVDRip закадровый] sheker187 Скачать
1 | 0
National Geographic [ 8.22 GB ] Очарование природы. Трилогия / Fascinating Nature. Trilogie [1996-2004 документальный BDRip 720p by msltel] msltel Скачать
1 | 0
National Geographic [ 18.95 GB ] Очарование природы. Трилогия / Fascinating Nature. Trilogie [1996-2004 документальный BDRip 1080p by msltel] msltel Скачать
1 | 0
National Geographic [ 5.57 GB ] Очарование природы. Трилогия / Fascinating Nature. Trilogie [1996-2004 документальный BDRip AVC by msltel] msltel Скачать
1 | 0

28-11-2019 20:33  

Отключить всю рекламу на сайте

10-07-2019 20:45 Очарование Скачать торрент  

Топик был перенесен из форума Классика зарубежного кино в форум Фильмы с авторской озвучкой


bober100pb.wtf



    Дорогой пользователь! Огромная просьба, поблагодарите релизера, оцените раздачу и оставьте свои комментарий, если Вы скачали Очарование через торрент бесплатно!
    Комментировать посты могут только пользователи прошедшие не сложную регистрацию
    Показать сообщения:    

    Очарование через торрент
    Скачать бесплатно Очарование
    Очарование скачать торрент
    Очарование смотреть онлайн
    Cкачать фильм Очарование бесплатно
    Очарование скачать торрент в хорошем качестве
    Очарование смотреть онлайн бесплатно в хорошем качестве


    Вы не можете начинать темы
    Вы не можете отвечать на сообщения
    Вы не можете редактировать свои сообщения
    Вы не можете удалять свои сообщения
    Вы не можете голосовать в опросах
    Вы не можете прикреплять файлы к сообщениям
    Вы можете скачивать файлы