Ссылка на приватное зеркало нашего сайта всего за 1$. Внимание количество ограничено!!!

2 сезон

iTunes

1 сезон

1

iTunes

iTunes

iTunes

1 сезон

RePack

30

ИГРА 18+

pack

ВАЖНО

!!Акция!!

Alien_RageХит недели

RePack

MK11
pack

Забери бонус

RePack

jed

!!Акция!!

Alien_Rage

RePack

fifa19

RePack

Assassins Creed: Odyssey

RePack

NEED FOR SPEED™ PAYBACK

4 сезон

9 сезон

Бесстыжие 9 сезон

Все сериалы

все сериалы на PB.wtf

RePack

FAR CRY 5
  

25-й час / Сезон: 1 / Серии: 1-12 из 12 (Николай Михайлов (III) [2016, Криминал, драма, фантастика, SATRip] pb.wtf

25-й час через торрент pb.wtf

Размер: 7.62 GB | Добавлен: 1 год 3 мес. назад | Торрент скачан:46 раз
Скачать  

10-07-2019 21:04 25-й час Скачать торрент  

25-й час Год выпуска: 2016
Страна: Россия, Украина
Жанр: Криминал, драма, фантастика
Продолжительность: ~ 00:46:00
Перевод: Не требуется
Субтитры: Украинские

Режиссер: Николай Михайлов (III)



В ролях: Антон Хабаров, Татьяна Арнтгольц, Жанна Эппле, Александр Кобзарь, Таисия Шипилова, Николай Иванов (II), Николай Боклан, Виктория Билан, Валерий Сковронский, Сергей Романюк, Фёдор Гуринец, Бесо Гатаев, Вероника Лукьяненко, Константин Самоуков, Пётр Сова, Евгений Капорин, Сергей Сафрончик, Фёдор Годына, Виктория Карпинская, Александр Яцко, Виктория Малекторович, Борис Хвошнянский, Давид Бабаев, Валерий Шептекита, Лариса Кадочникова, Евгений Лебедин, Станислав Боклан, Андрей Дебрин

Описание: Анна - журналистка, которая обладает даром поворачивать время вспять. Она обладает способностью, которой, возможно, больше нет ни у кого на свете. Эта способность досталась ей, лучшей журналистке популярной в городе газеты "24 часа", во время одного из освещаемых ею происшествий. Анна спасла внука старого часовщика. В знак благодарности старик подарил ей необычные часы, которые, как оказалось, могли "отмотать" время назад на один час, тем самым дав девушке возможность исправить ситуацию. Они включаются каждый раз, когда Анна или близкие ей люди попадают в настоящую беду. Девушка использует свой дар, чтобы предотвращать человеческие трагедии, свидетелем которых так часто приходится становиться журналисту.

Качество: SATRip
Формат: AVI

Видео: 720x400 (16:9), 25.000 fps, XviD build 73, 1388 Kbps, 0.19 bits/pixel
Аудио: 48 kHz, AC3 Dolby Digital, 2 ch, 192 Kbps
скриншот  скриншот  скриншот  скриншот  скриншот  

General
Complete name : \Downloads\25_chas.2016.SATRip.Files_x.avi
Format : AVI
Format/Info : Audio Video Interleave
File size : 29.4 MiB
Duration : 2mn 35s
Overall bit rate : 1 590 Kbps
Writing application : VirtualDubModRus 1.5.10.2 (build 2542/release)
Writing library : VirtualDubMod build 2542/release
Video #0
ID : 0
Format : MPEG-4 Visual
Format profile : Advanced Simple@L5
Format settings, BVOP : 1
Format settings, QPel : No
Format settings, GMC : No warppoints
Format settings, Matrix : Custom
Codec ID : XVID
Codec ID/Hint : XviD
Duration : 2mn 35s
Bit rate : 1 388 Kbps
Width : 720 pixels
Height : 400 pixels
Display aspect ratio : 16:9
Frame rate : 25.000 fps
Color space : YUV
Chroma subsampling : 4:2:0
Bit depth : 8 bits
Scan type : Progressive
Compression mode : Lossy
Bits/(Pixel*Frame) : 0.193
Stream size : 25.7 MiB (87%)
Writing library : XviD 73
Audio #1
ID : 1
Format : AC-3
Format/Info : Audio Coding 3
Mode extension : CM (complete main)
Format settings, Endianness : Big
Codec ID : 2000
Duration : 2mn 35s
Bit rate mode : Constant
Bit rate : 192 Kbps
Channel(s) : 2 channels
Channel positions : Front: L R
Sampling rate : 48.0 KHz
Bit depth : 16 bits
Compression mode : Lossy
Delay relative to video : 8ms
Stream size : 3.55 MiB (12%)
Alignment : Split accross interleaves
Interleave, duration : 40 ms (1.00 video frame)
Interleave, preload duration : 500 ms

pb.wtf



Скачать 25-й час через торрент http://i85.fastpic.ru/big/2016/1018/5f/08f9e8a118c4374e0895fec9872bdc5f.gif Скачать фильм 25-й час через торрент бесплантно в хорошем качестве Описание: Анна - журналистка, которая обладает даром поворачивать время вспять. Она обладает способностью, которой, возможно, больше нет ни ... 10 10 2
Торрент: Зарегистрирован [2019-07-10 21:04] · скачан: 46 раз
Статус: √ проверено
Размер: 7.62 GB
Как cкачать? Как скачать 25-й час через торрент | qTorrent

% Раздел Тема Автор DL S | L
Наши сериалы [ 7.04 GB ] 25-й час / Сезон: 1 / Серии: 1-12 из 12 [2016 WEB-DLRip-AVC] bober100 Скачать
1 | 0
Наши сериалы [ 20.84 GB ] 25-й час / Сезон: 1 / Серии: 1-12 из 12 [2016 WEB-DL 1080p] bober100 Скачать
1 | 0
Наши сериалы [ 6.93 GB ] 25-й час / Сезон: 1 / Серии: 1-12 из 12 [2016 HDTVRip] bober100 Скачать
1 | 0
Наши сериалы [ 8.52 GB ] 25-й час / Сезон: 1 / Серии: 1-12 из 12 [2016 HDTVRip-AVC] bober100 Скачать
1 | 0
Наши сериалы [ 25.71 GB ] 25-й час / Сезон: 1 / Серии: 1-12 из 12 [2016 HDTV 1080i] bober100 Скачать
1 | 0

28-11-2019 20:33  

Отключить всю рекламу на сайте

    Дорогой пользователь! Огромная просьба, поблагодарите релизера, оцените раздачу и оставьте свои комментарий, если Вы скачали 25-й час через торрент бесплатно! Внесите свою лепту в развитие PiratBit!
    Комментировать посты могут только пользователи прошедшие не сложную регистрацию
    Показать сообщения:    

    25-й час через торрент
    Скачать бесплатно 25-й час
    25-й час скачать торрент
    25-й час смотреть онлайн
    Cкачать фильм 25-й час бесплатно
    25-й час скачать торрент в хорошем качестве
    25-й час смотреть онлайн бесплатно в хорошем качестве


    Вы не можете начинать темы
    Вы не можете отвечать на сообщения
    Вы не можете редактировать свои сообщения
    Вы не можете удалять свои сообщения
    Вы не можете голосовать в опросах
    Вы не можете прикреплять файлы к сообщениям
    Вы можете скачивать файлы