новый адрес пиратбит piratbit
MEGA NEWS Получи личный уникальный адрес сайта и защити себя от блокировок. Внимание количество ограничено!!!

iTunes

1+1

iTunes

мы

iTunes

1

iTunes

Чернобыль

iTunes

Ральф против интернета

Лицензия

ПШазам

Лицензия

Игра престолов

Лицензия

30
pack

ВАЖНО

!!Акция!!

Alien_RageХит недели

RePack

Resident Evil 21

ИГРА 18+

pack

RePack

Metro:Exodus

!!Акция!!

Alien_Rage

RePack

fifa19

RePack

Assassins Creed: Odyssey

RePack

NEED FOR SPEED™ PAYBACK

3 сезон

9 сезон

Бесстыжие 9 сезон

Все сериалы

все сериалы на PB.wtf

RePack

FAR CRY 5
Ребята, катастрофически не хватает 1900р. для оплаты серверов за АВГУСТ (всвязи с блокировками трафик упал в 3 раза), 1-2р., выручайте.
  

Гость на свадьбе / The Wedding Guest (Майкл Уинтерботтом) [2018, Триллер, BDRip-AVC] MVO [iTunes] - ExKinoRay pb.wtf

Гость на свадьбе через торрент pb.wtf

Раздают: 12 [ 157 KB/s ] Качают: 1 [ 0 KB/s ]
Размер: 2.12 GB | Добавлен: 6 д. назад | Торрент скачан:50 раз
Скачать  

10-07-2019 22:50 Гость на свадьбе Скачать торрент  

Информация о фильме
Название: Гость на свадьбе
Оригинальное название: The Wedding Guest
Год выхода: 2018
Жанр: Триллер
Режиссер: Майкл Уинтерботтом
В ролях: Дев Патель, Радхика Апте, Джим Сарбх, Ниш Натвани, Хэриш Ханна

Описание: Точно спланированная операция, призванная спасти девушку от нежелательной свадьбы, оборачивается гонкой на перегонки со временем, где каждый неверный шаг может стоит жизни

rating

Страна: Великобритания
Студия: India Take One Productions, Ingenious Media, Isobel Griffiths Limited, Lipsync Post, Revolution Films, Riverstone Pictures, Stage 6 Films
Продолжительность: 01:40:08
Перевод: Профессиональный (многоголосый, закадровый) | iTunes

Формат: MKV
Качество: BDRip-AVC
Видео: MPEG-4 AVC, 1024x428 (2.40:1), 23.976 fps, 2289 Kbps, 0.203 bit/pixel
Аудио #1: 48 kHz, AC3, 5.1, 384 Kbps (iTunes) |
Аудио #2: 48 kHz, AC3, 5.1, 448 Kbps (Английский - Original) |

Субтитры: Русские, английские, украинские

General
Unique ID : 199607902166153734219105718727179887544 (0x962B156645DFDD968AFD8AAAF5F5E3B8)
Complete name : F:\The.Wedding.Guest.2018.BDRip.AVC.ExKinoRay.mkv
Format : Matroska
Format version : Version 2
File size : 2.12 GiB
Duration : 1 h 40 min
Overall bit rate : 3 028 kb/s
Movie name : The Wedding Guest 2018 from ExKinoRay
Encoded date : UTC 2019-10-16 12:36:55
Writing application : mkvmerge v5.6.0 ('Kenya Kane') built on May 27 2012 16:44:04
Writing library : libebml v1.2.3 + libmatroska v1.3.0

Video
ID : 1
Format : AVC
Format/Info : Advanced Video Codec
Format profile : High@L4.1
Format settings, CABAC : Yes
Format settings, ReFrames : 12 frames
Codec ID : V_MPEG4/ISO/AVC
Duration : 1 h 40 min
Bit rate : 2 136 kb/s
Nominal bit rate : 2 289 kb/s
Width : 1 024 pixels
Height : 428 pixels
Display aspect ratio : 2.40:1
Frame rate mode : Constant
Frame rate : 23.976 (23976/1000) FPS
Color space : YUV
Chroma subsampling : 4:2:0
Bit depth : 8 bits
Scan type : Progressive
Bits/(Pixel*Frame) : 0.203
Stream size : 1.49 GiB (71%)
Title : Enigma
Writing library : x264 core 152 r2851 ba24899
Encoding settings : cabac=1 / ref=12 / deblock=1:-2:-2 / analyse=0x3:0x113 / me=umh / subme=10 / psy=1 / psy_rd=1.05:0.10 / mixed_ref=1 / me_range=32 / chroma_me=1 / trellis=2 / 8x8dct=1 / cqm=0 / deadzone=21,11 / fast_pskip=0 / chroma_qp_offset=-3 / threads=12 / lookahead_threads=3 / sliced_threads=0 / nr=0 / decimate=0 / interlaced=0 / bluray_compat=0 / constrained_intra=0 / bframes=11 / b_pyramid=2 / b_adapt=2 / b_bias=0 / direct=3 / weightb=1 / open_gop=0 / weightp=2 / keyint=240 / keyint_min=23 / scenecut=40 / intra_refresh=0 / rc=2pass / mbtree=0 / bitrate=2289 / ratetol=1.0 / qcomp=0.60 / qpmin=0 / qpmax=51 / qpstep=4 / cplxblur=20.0 / qblur=0.5 / ip_ratio=1.40 / pb_ratio=1.30 / aq=1:1.00
Language : English
Default : Yes
Forced : No
Color range : Limited
Color primaries : BT.709
Transfer characteristics : BT.709
Matrix coefficients : BT.709

Audio #1
ID : 2
Format : AC-3
Format/Info : Audio Coding 3
Mode extension : CM (complete main)
Format settings, Endianness : Big
Codec ID : A_AC3
Duration : 1 h 40 min
Bit rate mode : Constant
Bit rate : 384 kb/s
Channel(s) : 6 channels
Channel positions : Front: L C R, Side: L R, LFE
Sampling rate : 48.0 kHz
Frame rate : 31.250 FPS (1536 spf)
Compression mode : Lossy
Stream size : 275 MiB (13%)
Title : iTunes
Language : Russian
Default : Yes
Forced : No

Audio #2
ID : 3
Format : AC-3
Format/Info : Audio Coding 3
Mode extension : CM (complete main)
Format settings, Endianness : Big
Codec ID : A_AC3
Duration : 1 h 40 min
Bit rate mode : Constant
Bit rate : 448 kb/s
Channel(s) : 6 channels
Channel positions : Front: L C R, Side: L R, LFE
Sampling rate : 48.0 kHz
Frame rate : 31.250 FPS (1536 spf)
Compression mode : Lossy
Stream size : 321 MiB (15%)
Language : English
Default : No
Forced : No

Text #1
ID : 4
Format : UTF-8
Codec ID : S_TEXT/UTF8
Codec ID/Info : UTF-8 Plain Text
Title : Full
Language : Russian
Default : No
Forced : No

Text #2
ID : 5
Format : UTF-8
Codec ID : S_TEXT/UTF8
Codec ID/Info : UTF-8 Plain Text
Language : Ukrainian
Default : No
Forced : No

Text #3
ID : 6
Format : UTF-8
Codec ID : S_TEXT/UTF8
Codec ID/Info : UTF-8 Plain Text
Title : SDH
Language : English
Default : No
Forced : No

Menu
00:00:00.000 : en:00:00:00.000
00:07:13.475 : en:00:07:13.475
00:15:32.056 : en:00:15:32.056
00:24:01.190 : en:00:24:01.190
00:33:15.285 : en:00:33:15.285
00:39:54.767 : en:00:39:54.767
00:47:04.530 : en:00:47:04.530
00:55:17.231 : en:00:55:17.231
01:05:21.167 : en:01:05:21.167
01:13:59.352 : en:01:13:59.352
01:19:52.913 : en:01:19:52.913
01:31:10.674 : en:01:31:10.674
Релиз от:

Автор релиза: pb.wtf



Скачать Гость на свадьбе через торрент https://i110.fastpic.ru/big/2019/0710/59/4497172521c724f45fe4a004237b7b59.jpg Скачать фильм Гость на свадьбе через торрент бесплантно в хорошем качестве Описание: Точно спланированная операция, призванная спасти девушку от нежелательной свадьбы, оборачивается гонкой на перегонки со временем, ... 5.5 10 4
Info! Золотая раздача, скачанное не засчитывается.
Торрент: Зарегистрирован [2019-10-16 13:13] · скачан: 50 раз
Статус: √ проверено
Размер: 2.12 GB
Как cкачать? Как скачать Гость на свадьбе через торрент | qTorrent


>> Регистрируемся здесь <<






Отзывы и комментарии о схеме читаем и пишем здесь: ---> Отзывы и комментарии о схеме

Новые благодарочки в телеграм довольных пользователей:
скриншот   скриншот   скриншот   скриншот   скриншот
    Дорогой пользователь! Огромная просьба, поблагодарите релизера, оцените раздачу и оставьте свои комментарий, если Вы скачали Гость на свадьбе через торрент бесплатно! Внесите свою лепту в развитие PiratBit!
    Комментировать посты могут только пользователи прошедшие не сложную регистрацию
    Показать сообщения:    

    Гость на свадьбе через торрент
    Скачать бесплатно Гость на свадьбе
    Гость на свадьбе скачать торрент
    Гость на свадьбе смотреть онлайн
    Cкачать фильм Гость на свадьбе бесплатно
    Гость на свадьбе скачать торрент в хорошем качестве
    Гость на свадьбе смотреть онлайн бесплатно в хорошем качестве


    Вы не можете начинать темы
    Вы не можете отвечать на сообщения
    Вы не можете редактировать свои сообщения
    Вы не можете удалять свои сообщения
    Вы не можете голосовать в опросах
    Вы не можете прикреплять файлы к сообщениям
    Вы можете скачивать файлы