Ссылка на приватное зеркало нашего сайта всего за 1$. Внимание количество ограничено!!!

2 сезон

iTunes

1 сезон

1

2 сезон

2 сезон

iTunes

1 сезон

RePack

30

Новинка

ВАЖНО

ИГРА 18+

pack

RePack

MK11
pack

Забери бонус

RePack

jed

!!Акция!!

Alien_Rage

RePack

fifa19

RePack

Assassins Creed: Odyssey

RePack

NEED FOR SPEED™ PAYBACK

4 сезон

9 сезон

Бесстыжие 9 сезон

Все сериалы

все сериалы на PB.wtf

RePack

FAR CRY 5
  

МАГНУС / MAGNUS / Сезон: 1 / Серии: 1-6 из 6 (Гер Хеннинг Хопланд) [2019, Комедия, фэнтези, детектив, WEBRip 720p] MVO [Good People] pb.wtf

МАГНУС через торрент pb.wtf

Размер: 3.29 GB | Добавлен: 1 год 4 мес. назад | Торрент скачан:68 раз
Скачать  

11-07-2019 01:54 МАГНУС Скачать торрент  

МАГНУС / MAGNUS
Оригинальное название: MAGNUS
Русское название: МАГНУС
Год выпуска: 2018
Страна: Норвегия
Жанр: Комедия, фэнтези, детектив
Продолжительность: ~00:31:00 мин.
Перевод: Профессиональный (многоголосый закадровый) | Good People
Субтитры: нет

rating

Режиссёр: Гер Хеннинг Хопланд

В ролях: Тим Ахерн, Ларс Берге, Ола Дж. Фурусет, Эрик Хивджу и другие

Описание: Сыщик Магнус пытается раскрыть убийство, следы которого ведут к скандинавской мифологии. Он объединяется с напарником с суицидальными наклонностями и его тощим соседом, и три изгоя начинают искать себе приключений на все точки тела. Чем ближе Магнус к разгадке убийства, тем сильнее меняется привычный мир, и мифические существа начинают выходить из норвежских лесов.

Качество: WEBRip 720p
Формат: MKV
Видео кодек: AVC
Аудио кодек: AC3

Видео: AVC, 1280x720 (16:9), 25 fps, ~2200kbps, 0.098 bit/pixel
Аудио 1: Dolby AC3 48000Hz stereo 192 Kbps Русский
Аудио 2: AAC 48000Hz stereo 160 Kbps Оригинал


Реклама: Присутствует звуковая (два раза в начале и конце по 12 сек.)
General
Unique ID                                : 179249695937934864550384256845363867149 (0x86DA3C565EFCEAF79ED0DF1DED44EE0D)
Complete name                            : Magnus.S01E01.Maskoten.720p.WEBRip.DD2.0.H.264-GoodPeople.mkv
Format                                   : Matroska
Format version                           : Version 4
File size                                : 589 MiB
Duration                                 : 31 min 45 s
Overall bit rate                         : 2 591 kb/s
Encoded date                             : UTC 2019-07-10 13:31:32
Writing application                      : mkvmerge v17.0.0 ('Be Ur Friend') 64-bit
Writing library                          : libebml v1.3.5 + libmatroska v1.4.8

Video
ID                                       : 1
Format                                   : AVC
Format/Info                              : Advanced Video Codec
Format profile                           : High@L3.1
Format settings                          : CABAC / 5 Ref Frames
Format settings, CABAC                   : Yes
Format settings, ReFrames                : 5 frames
Codec ID                                 : V_MPEG4/ISO/AVC
Duration                                 : 31 min 45 s
Bit rate                                 : 2 250 kb/s
Width                                    : 1 280 pixels
Height                                   : 720 pixels
Display aspect ratio                     : 16:9
Frame rate mode                          : Constant
Frame rate                               : 25.000 FPS
Color space                              : YUV
Chroma subsampling                       : 4:2:0
Bit depth                                : 8 bits
Scan type                                : Progressive
Bits/(Pixel*Frame)                       : 0.098
Stream size                              : 508 MiB (86%)
Writing library                          : x264 core 146
Encoding settings                        : cabac=1 / ref=5 / deblock=1:0:0 / analyse=0x3:0x113 / me=hex / subme=7 / psy=0 / mixed_ref=1 / me_range=16 / chroma_me=1 / trellis=1 / 8x8dct=1 / cqm=0 / deadzone=21,11 / fast_pskip=1 / chroma_qp_offset=0 / threads=7 / lookahead_threads=1 / sliced_threads=0 / nr=0 / decimate=1 / interlaced=0 / paff=0 / bluray_compat=0 / constrained_intra=0 / bframes=3 / b_pyramid=2 / b_adapt=1 / b_bias=0 / direct=1 / weightb=1 / open_gop=0 / weightp=2 / keyint=125 / keyint_min=12 / scenecut=0 / intra_refresh=0 / rc_lookahead=60 / rc=abr / mbtree=1 / bitrate=2250 / ratetol=1.0 / qcomp=0.60 / qpmin=0 / qpmax=69 / qpstep=4 / vbv_maxrate=2812 / vbv_bufsize=4500 / nal_hrd=none / filler=0 / ip_ratio=1.00 / aq=2:1.00
Default                                  : Yes
Forced                                   : No

Audio #1
ID                                       : 2
Format                                   : AC-3
Format/Info                              : Audio Coding 3
Commercial name                          : Dolby Digital
Codec ID                                 : A_AC3
Duration                                 : 31 min 45 s
Bit rate mode                            : Constant
Bit rate                                 : 192 kb/s
Channel(s)                               : 2 channels
Channel layout                           : L R
Sampling rate                            : 48.0 kHz
Frame rate                               : 31.250 FPS (1536 SPF)
Bit depth                                : 16 bits
Compression mode                         : Lossy
Delay relative to video                  : -80 ms
Stream size                              : 43.6 MiB (7%)
Language                                 : Russian
Service kind                             : Complete Main
Default                                  : Yes
Forced                                   : No

Audio #2
ID                                       : 3
Format                                   : AAC LC
Format/Info                              : Advanced Audio Codec Low Complexity
Codec ID                                 : A_AAC-2
Duration                                 : 31 min 45 s
Bit rate                                 : 160 kb/s
Channel(s)                               : 2 channels
Channel layout                           : L R
Sampling rate                            : 48.0 kHz
Frame rate                               : 46.875 FPS (1024 SPF)
Compression mode                         : Lossy
Delay relative to video                  : -80 ms
Stream size                              : 36.4 MiB (6%)
Default                                  : No
Forced                                   : No
pb.wtf



Скачать МАГНУС через торрент http://d.radikal.ru/d32/1907/e2/e49799219d8e.png Скачать фильм МАГНУС через торрент бесплантно в хорошем качестве Описание: Сыщик Магнус пытается раскрыть убийство, следы которого ведут к скандинавской мифологии. Он объединяется с напарником с ... 7.8 10 8
Info! Золотая раздача, скачанное не засчитывается.
Торрент: Зарегистрирован [2019-07-15 15:02] · скачан: 68 раз
Статус: √ проверено
Размер: 3.29 GB
Как cкачать? Как скачать МАГНУС через торрент | qTorrent

% Раздел Тема Автор DL S | L
Зарубежные сериалы [ 2.12 GB ] Магнус / Magnus / Сезон: 1 / Серии: 1-6 из 6 [2019 WEBRip] [MVO] killermax2013 Скачать
1 | 0

28-11-2019 20:33  

Отключить всю рекламу на сайте

    Дорогой пользователь! Огромная просьба, поблагодарите релизера, оцените раздачу и оставьте свои комментарий, если Вы скачали МАГНУС через торрент бесплатно! Внесите свою лепту в развитие PiratBit!
    Комментировать посты могут только пользователи прошедшие не сложную регистрацию
    Показать сообщения:    

    МАГНУС через торрент
    Скачать бесплатно МАГНУС
    МАГНУС скачать торрент
    МАГНУС смотреть онлайн
    Cкачать фильм МАГНУС бесплатно
    МАГНУС скачать торрент в хорошем качестве
    МАГНУС смотреть онлайн бесплатно в хорошем качестве


    Вы не можете начинать темы
    Вы не можете отвечать на сообщения
    Вы не можете редактировать свои сообщения
    Вы не можете удалять свои сообщения
    Вы не можете голосовать в опросах
    Вы не можете прикреплять файлы к сообщениям
    Вы можете скачивать файлы