Всегда рабочее зеркало без VPN и Proxy просто перед .vidak.icu напиши любое слово или цифру, Пример http://502a.vidak.icu

MVO

MVO

1 сезон

1

1 сезон

iTunes

1 сезон

13

1 сезон

Deluxe

pack

Рекомендуем

Repack

30

ВАЖНО

RePack

MK11

RePack

jed

RePack

fifa19

RePack

RDR2

RePack

NEED FOR SPEED™ PAYBACK

Кинопоиск HD

6 сезон

 Острые козырьки 6 сезон

Все сериалы

все сериалы на PB.wtf

RePack

FAR CRY 5
  
Magnet ссылка

Район №9 / District 9 (Нил Бломкамп) [2009, Боевик, драма, фантастика, триллер, UHD WEBRip 2160p] DUB [Лицензия] + 4xAVO pb.wtf

Район №9 через торрент pb.wtf

Размер: 23.66 GB | Добавлен: 3 года назад | Торрент скачан:51 раз
Смотреть онлайн Район №9 | Скачать    Ребята, помогите собрать деньги на оплату серверов!!!

11-07-2019 02:13 Район №9 Скачать торрент  

Район №9 / District 9««Им здесь не место»»

Год выпуска: 2009
Страна: США, ЮАР, Новая Зеландия, Канада
Жанр: Боевик, драма, фантастика, триллер
Продолжительность: 01:52:15
Перевод: Дублированный, авторский
Субтитры: Русские (Форсированные 3 вида, полные 2 вида), Английские (Форсированные, полные)
Режиссер: Нил Бломкамп
В ролях:

Шарлто Копли (Wikus Van De Merwe), Джейсон Коуп (Grey Bradnam - UKNR Chief Correspondent / Christopher Johnson), Натали Болтт (Sarah Livingstone - Sociologist), Сильвен Страйк (Dr Katrina McKenzie), Элизабет Мкандави (Interviewee), Джон Самнер (Les Feldman - MIL Engineer), Уильям Аллен Янг (Dirk Michaels), Грег Мелвилл-Смит (Interviewer), Ник Блейк (Francois Moraneu - CIV Engineer Team), Морена Буса Сесатса (Interviewee), Темба Нкоси (Interviewee), Мзвандил Нкоба (Interviewee)
Описание:
Более 20 лет назад инопланетяне установили первый контакт с Землей. Люди были готовы ко всему - от враждебного вторжения до невероятного технологического прорыва. Ни того, ни другого не произошло. Пришельцы оказались беженцами со своей собственной планеты, и пока мировое сообщество решало, что с ними делать дальше, для них был организован временный лагерь в южноафриканском Районе N9.
Рейтинг:

MPAA: R - Лицам до 17 лет обязательно присутствие взрослого
Качество: UHD WEBRip 2160p
Формат: MKV
Видео: HEVC HDR, 21.4 Мбит/с, 3840x2076, 23.976 Кадр/с, 10 бит
Аудио №1: Russian / DTS-HD High Resolution Audio / 5.1 / 48 kHz / 3456 kbps Дубляж С.Р.И.
Аудио №2: Russian / Dolby Digital Audio / 5.1 / 48 kHz / 640 kbps Дубляж BD EUR
Аудио №3: Russian / Dolby Digital Audio / 5.1 / 48 kHz / 640 kbps Сербин
Аудио №4: Russian / Dolby Digital Audio / 5.1 / 48 kHz / 448 kbps Гаврилов
Аудио №5: Russian / Dolby Digital Audio / 5.1 / 48 kHz / 448 kbps Горчаков
Аудио №6: Russian / Dolby Digital Audio / 5.1 / 48 kHz / 640 kbps Яроцкий
Аудио №7: English / DTS-HD Master Audio / 5.1 / 48 kHz / 2161 kbps Оригинал
Аудио №8: English / Dolby Digital Audio / 5.1 / 48 kHz / 384 kbps Оригинал
Навигация по главам: Есть

2010 - Оскар

Номинации

Лучший фильм
Лучший адаптированный сценарий
Лучший монтаж
Лучшие визуальные эффекты

2010 - Золотой глобус

Номинация

Лучший сценарий

2010 - Британская академия

Номинации

Лучший режиссер (Нил Бломкамп)
Лучший адаптированный сценарий
Лучшая работа оператора
Лучший звук
Лучший монтаж
Лучшие визуальные эффекты
Лучшая работа художника-постановщика

2010 - Жорж

Номинация

Лучший зарубежный экшн

2010 - Премия канала MTV

Номинация

Лучший испуг (Шарлто Копли)
General
Unique ID : 329162834416917985165277971337177105239 (0xF7A274B85F350A0218BD7CC908428357)
Complete name : X:\Releases\District.9.2009.WEBRip.HEVC.HDR.2160p.mkv
Format : Matroska
Format version : Version 4
File size : 23.7 GiB
Duration : 1 h 52 min
Overall bit rate mode : Variable
Overall bit rate : 30.2 Mb/s
Encoded date : UTC 2019-07-10 13:00:45
Writing application : mkvmerge v35.0.0 ('All The Love In The World') 64-bit
Writing library : libebml v1.3.9 + libmatroska v1.5.2
Cover : Yes
Attachments : poster.jpg / Cover.png

Video
ID : 1
Format : HEVC
Format/Info : High Efficiency Video Coding
Format profile : Main [email protected]@High
HDR format : SMPTE ST 2086, HDR10 compatible
Codec ID : V_MPEGH/ISO/HEVC
Duration : 1 h 52 min
Bit rate : 21.4 Mb/s
Width : 3 840 pixels
Height : 2 076 pixels
Display aspect ratio : 1.85:1
Frame rate mode : Constant
Frame rate : 23.976 (24000/1001) FPS
Color space : YUV
Chroma subsampling : 4:2:0 (Type 2)
Bit depth : 10 bits
Bits/(Pixel*Frame) : 0.112
Stream size : 16.7 GiB (71%)
Writing library : x265 3.0_Au+8-31ab7e09a3b5:[Windows][GCC 8.3.0][64 bit] 10bit
Encoding settings : cpuid=1111039 / frame-threads=4 / numa-pools=28 / wpp / no-pmode / no-pme / no-psnr / no-ssim / log-level=2 / input-csp=1 / input-res=3840x2076 / interlace=0 / total-frames=161472 / level-idc=51 / high-tier=1 / uhd-bd=0 / ref=4 / no-allow-non-conformance / repeat-headers / annexb / aud / hrd / info / hash=0 / no-temporal-layers / no-open-gop / min-keyint=24 / keyint=240 / gop-lookahead=0 / bframes=4 / b-adapt=2 / b-pyramid / bframe-bias=0 / rc-lookahead=25 / lookahead-slices=4 / scenecut=40 / radl=0 / no-splice / no-intra-refresh / ctu=64 / min-cu-size=8 / rect / no-amp / max-tu-size=32 / tu-inter-depth=1 / tu-intra-depth=1 / limit-tu=0 / rdoq-level=2 / dynamic-rd=0.00 / no-ssim-rd / signhide / no-tskip / nr-intra=0 / nr-inter=0 / no-constrained-intra / no-strong-intra-smoothing / max-merge=3 / limit-refs=3 / limit-modes / me=3 / subme=3 / merange=57 / temporal-mvp / weightp / no-weightb / no-analyze-src-pics / deblock=-3:-3 / no-sao / no-sao-non-deblock / rd=4 / no-early-skip / rskip / no-fast-intra / no-tskip-fast / no-cu-lossless / no-b-intra / no-splitrd-skip / rdpenalty=0 / psy-rd=2.00 / psy-rdoq=1.00 / no-rd-refine / no-lossless / cbqpoffs=0 / crqpoffs=0 / rc=crf / crf=16.0 / qcomp=0.70 / qpstep=4 / stats-write=0 / stats-read=0 / vbv-maxrate=160000 / vbv-bufsize=160000 / vbv-init=0.9 / crf-max=0.0 / crf-min=0.0 / ipratio=1.40 / pbratio=1.30 / aq-mode=1 / aq-strength=1.00 / cutree / zone-count=0 / no-strict-cbr / qg-size=32 / no-rc-grain / qpmax=69 / qpmin=0 / no-const-vbv / sar=1 / overscan=0 / videoformat=5 / range=0 / colorprim=9 / transfer=16 / colormatrix=9 / chromaloc=1 / chromaloc-top=2 / chromaloc-bottom=2 / display-window=0 / master-display=G(8500,39850)B(6550,2300)R(35400,14600)WP(15635,16450)L(40000000,41250) / max-cll=0,0 / min-luma=0 / max-luma=1023 / log2-max-poc-lsb=8 / vui-timing-info / vui-hrd-info / slices=1 / no-opt-qp-pps / no-opt-ref-list-length-pps / no-multi-pass-opt-rps / scenecut-bias=0.05 / no-opt-cu-delta-qp / no-aq-motion / hdr / hdr-opt / no-dhdr10-opt / no-idr-recovery-sei / analysis-reuse-level=5 / scale-factor=0 / refine-intra=0 / refine-inter=0 / refine-mv=0 / refine-ctu-distortion=0 / no-limit-sao / ctu-info=0 / no-lowpass-dct / refine-analysis-type=0 / copy-pic=1 / max-ausize-factor=1.0 / no-dynamic-refine / no-single-sei / no-hevc-aq / no-svt / qp-adaptation-range=1.00
Default : Yes
Forced : No
Color range : Limited
Color primaries : BT.2020
Transfer characteristics : PQ
Matrix coefficients : BT.2020 non-constant
Mastering display color pri : BT.2020
Mastering display luminance : min: 4.1250 cd/m2, max: 4000 cd/m2

Audio #1
ID : 2
Format : DTS XBR
Format/Info : Digital Theater Systems
Commercial name : DTS-HD High Resolution Audio
Codec ID : A_DTS
Duration : 1 h 52 min
Bit rate mode : Constant
Bit rate : 3 456 kb/s
Channel(s) : 6 channels
Channel layout : C L R Ls Rs LFE
Sampling rate : 48.0 kHz
Frame rate : 93.750 FPS (512 SPF)
Bit depth : 16 bits
Compression mode : Lossy
Stream size : 2.71 GiB (11%)
Title : Дубляж С.Р.И.
Language : Russian
Default : Yes
Forced : No

Audio #2
ID : 3
Format : AC-3
Format/Info : Audio Coding 3
Commercial name : Dolby Digital
Codec ID : A_AC3
Duration : 1 h 52 min
Bit rate mode : Constant
Bit rate : 640 kb/s
Channel(s) : 6 channels
Channel layout : L R C LFE Ls Rs
Sampling rate : 48.0 kHz
Frame rate : 31.250 FPS (1536 SPF)
Bit depth : 16 bits
Compression mode : Lossy
Stream size : 514 MiB (2%)
Title : Дубляж BD "EUR"
Language : Russian
Service kind : Complete Main
Default : No
Forced : No

Audio #3
ID : 4
Format : AC-3
Format/Info : Audio Coding 3
Commercial name : Dolby Digital
Codec ID : A_AC3
Duration : 1 h 52 min
Bit rate mode : Constant
Bit rate : 640 kb/s
Channel(s) : 6 channels
Channel layout : L R C LFE Ls Rs
Sampling rate : 48.0 kHz
Frame rate : 31.250 FPS (1536 SPF)
Bit depth : 16 bits
Compression mode : Lossy
Stream size : 514 MiB (2%)
Title : Сербин
Language : Russian
Service kind : Complete Main
Default : No
Forced : No

Audio #4
ID : 5
Format : AC-3
Format/Info : Audio Coding 3
Commercial name : Dolby Digital
Codec ID : A_AC3
Duration : 1 h 52 min
Bit rate mode : Constant
Bit rate : 448 kb/s
Channel(s) : 6 channels
Channel layout : L R C LFE Ls Rs
Sampling rate : 48.0 kHz
Frame rate : 31.250 FPS (1536 SPF)
Bit depth : 16 bits
Compression mode : Lossy
Stream size : 360 MiB (1%)
Title : Гаврилов
Language : Russian
Service kind : Complete Main
Default : No
Forced : No

Audio #5
ID : 6
Format : AC-3
Format/Info : Audio Coding 3
Commercial name : Dolby Digital
Codec ID : A_AC3
Duration : 1 h 52 min
Bit rate mode : Constant
Bit rate : 448 kb/s
Channel(s) : 6 channels
Channel layout : L R C LFE Ls Rs
Sampling rate : 48.0 kHz
Frame rate : 31.250 FPS (1536 SPF)
Bit depth : 16 bits
Compression mode : Lossy
Stream size : 360 MiB (1%)
Title : Горчаков
Language : Russian
Service kind : Complete Main
Default : No
Forced : No

Audio #6
ID : 7
Format : AC-3
Format/Info : Audio Coding 3
Commercial name : Dolby Digital
Codec ID : A_AC3
Duration : 1 h 52 min
Bit rate mode : Constant
Bit rate : 640 kb/s
Channel(s) : 6 channels
Channel layout : L R C LFE Ls Rs
Sampling rate : 48.0 kHz
Frame rate : 31.250 FPS (1536 SPF)
Bit depth : 16 bits
Compression mode : Lossy
Stream size : 514 MiB (2%)
Title : Яроцкий
Language : Russian
Service kind : Complete Main
Default : No
Forced : No

Audio #7
ID : 8
Format : DTS XLL
Format/Info : Digital Theater Systems
Commercial name : DTS-HD Master Audio
Codec ID : A_DTS
Duration : 1 h 52 min
Bit rate mode : Variable
Bit rate : 2 161 kb/s
Channel(s) : 6 channels
Channel layout : C L R Ls Rs LFE
Sampling rate : 48.0 kHz
Frame rate : 93.750 FPS (512 SPF)
Bit depth : 16 bits
Compression mode : Lossless
Delay relative to video : 7 s 716 ms
Stream size : 1.69 GiB (7%)
Title : Original
Language : English
Default : No
Forced : No

Audio #8
ID : 9
Format : AC-3
Format/Info : Audio Coding 3
Commercial name : Dolby Digital
Codec ID : A_AC3
Duration : 1 h 52 min
Bit rate mode : Constant
Bit rate : 384 kb/s
Channel(s) : 6 channels
Channel layout : L R C LFE Ls Rs
Sampling rate : 48.0 kHz
Frame rate : 31.250 FPS (1536 SPF)
Bit depth : 16 bits
Compression mode : Lossy
Stream size : 308 MiB (1%)
Title : Original
Language : English
Service kind : Complete Main
Default : No
Forced : No

Text #1
ID : 10
Format : UTF-8
Codec ID : S_TEXT/UTF8
Codec ID/Info : UTF-8 Plain Text
Duration : 1 h 43 min
Bit rate : 14 b/s
Count of elements : 278
Stream size : 10.9 KiB (0%)
Title : Форсированные v1
Language : Russian
Default : Yes
Forced : No

Text #2
ID : 11
Format : UTF-8
Codec ID : S_TEXT/UTF8
Codec ID/Info : UTF-8 Plain Text
Duration : 1 h 43 min
Bit rate : 16 b/s
Count of elements : 291
Stream size : 12.8 KiB (0%)
Title : Форсированные v2
Language : Russian
Default : No
Forced : No

Text #3
ID : 12
Format : UTF-8
Codec ID : S_TEXT/UTF8
Codec ID/Info : UTF-8 Plain Text
Duration : 1 h 42 min
Bit rate : 8 b/s
Count of elements : 79
Stream size : 6.30 KiB (0%)
Title : Форсированные v3
Language : Russian
Default : No
Forced : No

Text #4
ID : 13
Format : UTF-8
Codec ID : S_TEXT/UTF8
Codec ID/Info : UTF-8 Plain Text
Duration : 1 h 43 min
Bit rate : 97 b/s
Count of elements : 1299
Stream size : 74.5 KiB (0%)
Title : Полные v1
Language : Russian
Default : No
Forced : No

Text #5
ID : 14
Format : UTF-8
Codec ID : S_TEXT/UTF8
Codec ID/Info : UTF-8 Plain Text
Duration : 1 h 44 min
Bit rate : 117 b/s
Count of elements : 1422
Stream size : 89.8 KiB (0%)
Title : Полные v2
Language : Russian
Default : No
Forced : No

Text #6
ID : 15
Format : UTF-8
Codec ID : S_TEXT/UTF8
Codec ID/Info : UTF-8 Plain Text
Duration : 1 h 33 min
Bit rate : 7 b/s
Count of elements : 221
Stream size : 5.25 KiB (0%)
Title : Forced
Language : English
Default : No
Forced : No

Text #7
ID : 16
Format : UTF-8
Codec ID : S_TEXT/UTF8
Codec ID/Info : UTF-8 Plain Text
Duration : 1 h 43 min
Bit rate : 72 b/s
Count of elements : 1426
Stream size : 55.1 KiB (0%)
Title : Full
Language : English
Default : No
Forced : No

Menu
00:00:00.000 : en:Chapter 01
00:06:32.350 : en:Chapter 02
00:13:35.356 : en:Chapter 03
00:20:43.367 : en:Chapter 04
00:27:18.762 : en:Chapter 05
00:34:23.728 : en:Chapter 06
00:42:07.942 : en:Chapter 07
00:47:11.954 : en:Chapter 08
00:54:17.963 : en:Chapter 09
01:00:10.607 : en:Chapter 10
01:08:35.986 : en:Chapter 11
01:13:47.881 : en:Chapter 12
01:21:12.242 : en:Chapter 13
01:26:50.413 : en:Chapter 14
01:33:51.417 : en:Chapter 15
01:38:54.511 : en:Chapter 16
pb.wtf



Скачать Район №9 через торрент https://a.radikal.ru/a39/1907/bd/7ad5e236c091.png Скачать, смотреть онлайн Район №9 бесплантно в хорошем качестве Описание: Более 20 лет назад инопланетяне установили первый контакт с Землей. Люди были готовы ко всему - от враждебного вторжения до ... 7.4 10 5
Торрент: Зарегистрирован [2019-07-11 02:13] · скачан: 51 раз
Статус: √ проверено
Размер: 23.66 GB
Как cкачать? Как скачать Район №9 через торрент | UTorrent

% Раздел Тема Автор DL S | L
Ultra HD (UHD: 2K, 4K, 8K) — видео сверхвысокой чёткости [ 43.89 GB ] Район №9 / District 9 [2009 UHD BDRemux 2160p] DUB [] +4xAVO bober100 Скачать
1 | 0
Фильмы [HD 720p, 1080p] (Хороший звук DUB, MVO) [ 8.87 GB ] Район №9 / District 9 [2009 BDRip 1080p] DUB [] + 3xAVO sheker187 Скачать
1 | 0

28-11-2019 20:33  

Отключить вcю реклaмy на сайте

    Дорогой пользователь! Огромная просьба, поблагодарите релизера, оцените раздачу и оставьте свои комментарий, если Вы скачали Район №9 через торрент бесплатно!
    Комментировать посты могут только пользователи прошедшие не сложную регистрацию
    Показать сообщения:    

    Район №9 через торрент
    Скачать бесплатно Район №9
    Район №9 скачать торрент
    Район №9 смотреть онлайн
    Cкачать фильм Район №9 бесплатно
    Район №9 скачать торрент в хорошем качестве
    Район №9 смотреть онлайн бесплатно в хорошем качестве


    Вы не можете начинать темы
    Вы не можете отвечать на сообщения
    Вы не можете редактировать свои сообщения
    Вы не можете удалять свои сообщения
    Вы не можете голосовать в опросах
    Вы не можете прикреплять файлы к сообщениям
    Вы можете скачивать файлы