Ссылка на приватное зеркало нашего сайта всего за 1$. Внимание количество ограничено!!!

2 сезон

iTunes

1 сезон

1

2 сезон

2 сезон

iTunes

1 сезон

RePack

30

Новинка

ВАЖНО

ИГРА 18+

pack

RePack

MK11
pack

Забери бонус

RePack

jed

!!Акция!!

Alien_Rage

RePack

fifa19

RePack

Assassins Creed: Odyssey

RePack

NEED FOR SPEED™ PAYBACK

4 сезон

9 сезон

Бесстыжие 9 сезон

Все сериалы

все сериалы на PB.wtf

RePack

FAR CRY 5
  

Братья по оружию / Band of Brothers / Серии: 1-10 из 10 (Дэвид Франкель, Том Хэнкс, Дэвид Лелэнд) [2001, Боевик, драма, приключения, военный, история, BDRip 720p] 2xMVO+2xDVO+AVO pb.wtf

Братья по оружию через торрент pb.wtf

Размер: 50.94 GB | Добавлен: 1 год 4 мес. назад | Торрент скачан:20 раз
Скачать  

11-07-2019 03:43 Братья по оружию Скачать торрент  

Братья по оружию / Band of Brothers
Год выпуска: 2001
Страна: США, Великобритания
Жанр: Боевик, драма, приключения, военный, история
Продолжительность: 01:15:00
Перевод: Профессиональный (многоголосый), профессиональный двухголосый, авторский
Субтитры: Русские, английские

Режиссер: Дэвид Франкель, Том Хэнкс, Дэвид Лелэнд

rating

В ролях: Дэмиэн Льюис, Донни Уолберг, Рон Ливингстон, Скотт Граймз, Рик Гомез, Майкл Кадлитц, Робин Лэйн, Николас Аарон, Джеймс Мадио, Шэйн Тейлор, Декстер Флетчер, Росс МакКолл, Фил Барантини, Нил МакДонаф, Фрэнк Джон Хьюз, Дейл Дай, Джордж Калил, Майкл Фассбендер, Нолан Хеммингс, Рене Л. Морено, Дуглас Спэйн, Ричард Спейт мл., Рик Уорден, Кирк Асеведо, Эйон Бэйли, Мэттью Лейтч, Тим Мэтьюз, Мэттью Сеттл, Джейми Бамбер, Дэвид Швиммер, Марк Уоррен, Стивен Грэм, Эндрю Ховард, Том Харди, Кори Джонсон, Саймон Пегг, Джеймс МакЭвой, Уильям Армстронг, Люси Джинн

Описание: В сериале рассказывается о боевом пути роты E («Easy») 2-го батальона 506-го парашютно-десантного полка 101-й воздушно-десантной дивизии США от тренировочного лагеря в Таккоа, штат Джорджия, через высадку в Нормандии, операцию «Маркет Гарден» и Бастонское сражение до конца войны.

Качество: BDRip 720p
Формат: MKV

Видео: MPEG-4 AVC, 9500 Кбит/с, 1280x720
Аудио#1: Русский (AC3, 2 ch, 192 Кбит/с) / Профессиональный многоголосый (5 канал / Звезда)
Аудио#2: Русский (AC3, 2 ch, 192 Кбит/с) / Профессиональный многоголосый (Премьер)
Аудио#3: Русский (AC3, 6 ch, 448 Кбит/с) / Профессиональный двухголосый (Кубик в Кубе)
Аудио#4: Русский (AC3, 6 ch, 448 Кбит/с) / Профессиональный двухголосый (П.Гланц и И.Королева)
Аудио#5: Русский (AC3, 6 ch, 448 Кбит/с) / Авторский одноголосый (Юрий Живов)
Аудио#6: Английский (AC3, 6 ch, 448 Кбит/с)
скриншот   скриншот   скриншот  

Общее
Уникальный идентификатор : 229933572879904186256240780083079740290 (0xACFB986715796060905C060AFD34FB82)
Полное имя : D:В планахСериалы MediaClubBratja.po.oruzhiju.(1.sezon).2001.x264.BDRip.720p_MediaClubBratja.po.oruzhiju.(1.sezon.01.seria.iz.10).2001.x264.BDRip.720p_MediaClub.mkv
Формат : Matroska
Версия формата : Version 4 / Version 2
Размер файла : 5,96 Гбайт
Продолжительность : 1 ч. 13 м.
Общий поток : 11,7 Мбит/сек
Название фильма : ReJIiZ MediaClub by BenderBEST
Дата кодирования : UTC 2014-04-06 09:36:50
Программа кодирования : mkvmerge v6.5.0 ('Isn't she lovely') built on Oct 20 2013 12:50:05
Библиотека кодирования : libebml v1.3.0 + libmatroska v1.4.1

Видео
Идентификатор : 1
Формат : AVC
Формат/Информация : Advanced Video Codec
Профиль формата : High@L4.1
Параметр CABAC формата : Да
Параметр ReFrames формата : 9 кадров
Идентификатор кодека : V_MPEG4/ISO/AVC
Продолжительность : 1 ч. 13 м.
Битрейт : 9500 Кбит/сек
Ширина : 1280 пикселей
Высота : 720 пикселей
Соотношение сторон : 16:9
Режим частоты кадров : Постоянный
Частота кадров : 23,976 кадра/сек
Цветовое пространство : YUV
Субдискретизация насыщенности : 4:2:0
Битовая глубина : 8 бит
Тип развёртки : Прогрессивная
Бит/(Пиксели*Кадры) : 0.430
Размер потока : 4,73 Гбайт (79%)
Библиотека кодирования : x264 core 114 r1900 60ef1f8
Настройки программы : cabac=1 / ref=9 / deblock=1:-3:-3 / analyse=0x3:0x133 / me=umh / subme=10 / psy=1 / psy_rd=1.20:0.00 / mixed_ref=1 / me_range=64 / chroma_me=1 / trellis=2 / 8x8dct=1 / cqm=0 / deadzone=21,11 / fast_pskip=0 / chroma_qp_offset=-2 / threads=18 / sliced_threads=0 / nr=0 / decimate=0 / interlaced=0 / constrained_intra=0 / bframes=9 / b_pyramid=2 / b_adapt=2 / b_bias=0 / direct=3 / weightb=1 / open_gop=0 / weightp=2 / keyint=250 / keyint_min=23 / scenecut=40 / intra_refresh=0 / rc_lookahead=80 / rc=2pass / mbtree=1 / bitrate=9500 / ratetol=1.0 / qcomp=0.60 / qpmin=0 / qpmax=51 / qpstep=4 / cplxblur=20.0 / qblur=0.5 / ip_ratio=1.40 / aq=2:0.50
Язык : English
Default : Да
Forced : Нет

Аудио #1
Идентификатор : 2
Формат : AC-3
Формат/Информация : Audio Coding 3
Расширение режима : CM (complete main)
Параметр Endianness формата : Big
Идентификатор кодека : A_AC3
Продолжительность : 1 ч. 13 м.
Вид битрейта : Постоянный
Битрейт : 192 Кбит/сек
Каналы : 2 канала
Расположение каналов : Front: L R
Частота : 48,0 КГц
Битовая глубина : 16 бит
Метод сжатия : С потерями
Размер потока : 101 Мбайт (2%)
Заголовок : 5 канал
Язык : Russian
Default : Да
Forced : Нет

Аудио #2
Идентификатор : 3
Формат : AC-3
Формат/Информация : Audio Coding 3
Расширение режима : CM (complete main)
Параметр Endianness формата : Big
Идентификатор кодека : A_AC3
Продолжительность : 1 ч. 13 м.
Вид битрейта : Постоянный
Битрейт : 192 Кбит/сек
Каналы : 2 канала
Расположение каналов : Front: L R
Частота : 48,0 КГц
Битовая глубина : 16 бит
Метод сжатия : С потерями
Размер потока : 101 Мбайт (2%)
Заголовок : Премьер
Язык : Russian
Default : Нет
Forced : Нет

Аудио #3
Идентификатор : 4
Формат : AC-3
Формат/Информация : Audio Coding 3
Расширение режима : CM (complete main)
Параметр Endianness формата : Big
Идентификатор кодека : A_AC3
Продолжительность : 1 ч. 13 м.
Вид битрейта : Постоянный
Битрейт : 448 Кбит/сек
Каналы : 6 каналов
Расположение каналов : Front: L C R, Side: L R, LFE
Частота : 48,0 КГц
Битовая глубина : 16 бит
Метод сжатия : С потерями
Размер потока : 235 Мбайт (4%)
Заголовок : Кубик в Кубе
Язык : Russian
Default : Нет
Forced : Нет

Аудио #4
Идентификатор : 5
Формат : AC-3
Формат/Информация : Audio Coding 3
Расширение режима : CM (complete main)
Параметр Endianness формата : Big
Идентификатор кодека : A_AC3
Продолжительность : 1 ч. 13 м.
Вид битрейта : Постоянный
Битрейт : 448 Кбит/сек
Каналы : 6 каналов
Расположение каналов : Front: L C R, Side: L R, LFE
Частота : 48,0 КГц
Битовая глубина : 16 бит
Метод сжатия : С потерями
Размер потока : 235 Мбайт (4%)
Заголовок : Гланц и Королева
Язык : Russian
Default : Нет
Forced : Нет

Аудио #5
Идентификатор : 6
Формат : AC-3
Формат/Информация : Audio Coding 3
Расширение режима : CM (complete main)
Параметр Endianness формата : Big
Идентификатор кодека : A_AC3
Продолжительность : 1 ч. 13 м.
Вид битрейта : Постоянный
Битрейт : 448 Кбит/сек
Каналы : 6 каналов
Расположение каналов : Front: L C R, Side: L R, LFE
Частота : 48,0 КГц
Битовая глубина : 16 бит
Метод сжатия : С потерями
Размер потока : 235 Мбайт (4%)
Заголовок : Живов
Язык : Russian
Default : Нет
Forced : Нет

Аудио #6
Идентификатор : 7
Формат : AC-3
Формат/Информация : Audio Coding 3
Расширение режима : CM (complete main)
Параметр Endianness формата : Big
Идентификатор кодека : A_AC3
Продолжительность : 1 ч. 13 м.
Вид битрейта : Постоянный
Битрейт : 448 Кбит/сек
Каналы : 6 каналов
Расположение каналов : Front: L C R, Side: L R, LFE
Частота : 48,0 КГц
Битовая глубина : 16 бит
Метод сжатия : С потерями
Размер потока : 235 Мбайт (4%)
Язык : English
Default : Нет
Forced : Нет

Текст #1
Идентификатор : 8
Формат : UTF-8
Идентификатор кодека : S_TEXT/UTF8
Идентификатор кодека/Информация : UTF-8 Plain Text
Язык : Russian
Default : Нет
Forced : Нет

Текст #2
Идентификатор : 9
Формат : UTF-8
Идентификатор кодека : S_TEXT/UTF8
Идентификатор кодека/Информация : UTF-8 Plain Text
Язык : English
Default : Нет
Forced : Нет

Меню
00:00:00.000 : en:00:00:00.000
00:01:40.100 : en:00:01:40.100
00:04:03.743 : en:00:04:03.743
00:08:25.505 : en:00:08:25.505
00:23:43.631 : en:00:23:43.631
00:28:11.106 : en:00:28:11.106
00:33:34.846 : en:00:33:34.846
00:36:21.805 : en:00:36:21.805
00:52:15.132 : en:00:52:15.132
01:01:58.214 : en:01:01:58.214
01:10:06.202 : en:01:10:06.202

pb.wtf



Скачать Братья по оружию через торрент http://pic.kartinco.top/images/6/qujiy.jpg Скачать фильм Братья по оружию через торрент бесплантно в хорошем качестве Описание: В сериале рассказывается о боевом пути роты E («Easy») 2-го батальона 506-го парашютно-десантного полка 101-й воздушно-десантной ... 10 10 3
Торрент: Зарегистрирован [2019-07-11 03:43] · скачан: 20 раз
Статус: √ проверено
Размер: 50.94 GB
Как cкачать? Как скачать Братья по оружию через торрент | qTorrent

28-11-2019 20:33  

Отключить всю рекламу на сайте

11-07-2019 04:01 Братья по оружию Скачать торрент  

Посмотрите как отличается их война от нашей!pb.wtf



    Дорогой пользователь! Огромная просьба, поблагодарите релизера, оцените раздачу и оставьте свои комментарий, если Вы скачали Братья по оружию через торрент бесплатно! Внесите свою лепту в развитие PiratBit!
    Комментировать посты могут только пользователи прошедшие не сложную регистрацию
    Показать сообщения:    

    Братья по оружию через торрент
    Скачать бесплатно Братья по оружию
    Братья по оружию скачать торрент
    Братья по оружию смотреть онлайн
    Cкачать фильм Братья по оружию бесплатно
    Братья по оружию скачать торрент в хорошем качестве
    Братья по оружию смотреть онлайн бесплатно в хорошем качестве


    Вы не можете начинать темы
    Вы не можете отвечать на сообщения
    Вы не можете редактировать свои сообщения
    Вы не можете удалять свои сообщения
    Вы не можете голосовать в опросах
    Вы не можете прикреплять файлы к сообщениям
    Вы можете скачивать файлы