Ссылка на приватное зеркало всего за 1$. Внимание количество ограничено!!!

OK

1+1

iTunes

мы

OK

1

WEB-DLRip

Джокер

Пифагор

Ведьмак / The Witcher сериал

Лицензия

ПШазам

ОК

Оно 2

iTunes

30
pack

Вам бонус

ВАЖНО

!!Акция!!

Alien_RageХит недели

RePack

Resident Evil 21

ИГРА 18+

pack

RePack

jed

RePack

fifa19

RePack

Assassins Creed: Odyssey

RePack

NEED FOR SPEED™ PAYBACK

4 сезон

9 сезон

Бесстыжие 9 сезон

Все сериалы

все сериалы на PB.wtf

RePack

FAR CRY 5
  

Город лжи / City of Lies (Брэд Фурман) [2019, триллер, драма, криминал, детектив, биография, BDRip 720p] MVO [СВ Студия] pb.wtf

Город лжи через торрент pb.wtf

Раздают: 3 [ 0 KB/s ]
Размер: 6.45 GB | Добавлен: 6 мес. назад | Торрент скачан:102 раза
Скачать  

11-07-2019 06:29 Город лжи Скачать торрент  

Город лжи / City of Lies
Год выпуска: 2019
Страна: Великобритания, США
Жанр: триллер, драма, криминал, детектив, биография
Продолжительность: 01:52:17
Перевод: Профессиональный (многоголосый) | СВ Студия
Субтитры: отсутствуют

Режиссер: Брэд Фурман

rating


В ролях:

Джонни Депп (Russell Poole), Форест Уитакер (Jack Jackson), Тоби Хасс (Detective Fred Miller), Дэйтон Калли (Lieutenant O'Shea), Нил Браун мл. (Rafael Perez), Луис Хертэм (City Attorney Stone), Шей Уигэм (Frank Lyga), Ксандер Беркли (Edwards), Мелани Бенц (Jessica), Шамир Андерсон (David Mack), Лоуренс Мэйсон (FBI Agent Dunton), Кристиан Джордж (Belsher)
Описание:

7 сентября 1996 года был смертельно ранен рэпер Тупак Шакур, через полгода был застрелен главный подозреваемый в его убийстве - хип-хоп-звезда Бигги Смолз. Преступники не были найдены, дело о «рэперской войне побережий» было закрыто. Спустя годы опальный детектив Рассел Пул возвращается к расследованию и вместе с репортером Джексоном распутывает паутину немыслимого заговора, в котором, очевидно, замешана полиция Лас-Вегаса.

Качество: BDRip 720p
Формат: MKV

Видео: MPEG-4 AVC, 7150 Кбит/с, 1280x536
Аудио#1: Русский (AC3, 6 ch, 448 Кбит/с)
Аудио#2: Английский (AC3, 6 ch, 640 Кбит/с)
скриншот  скриншот  скриншот  скриншот  

General
Unique ID : 250769942907665488938521017000237981290 (0xBCA888C2A13A845FB3E3A559EB87DE6A)
Complete name : D:\Gorod.lzhi.2018.BDRip (720p).mkv
Format : Matroska
Format version : Version 4
File size : 6.45 GiB
Duration : 1 h 52 min
Overall bit rate : 8 228 kb/s
Encoded date : UTC 2019-06-29 19:16:31
Writing application : mkvmerge v8.3.0 ('Over the Horizon') 64bit
Writing library : libebml v1.3.1 + libmatroska v1.4.2

Video
ID : 1
Format : AVC
Format/Info : Advanced Video Codec
Format profile : High@L4.1
Format settings : CABAC / 11 Ref Frames
Format settings, CABAC : Yes
Format settings, Reference : 11 frames
Codec ID : V_MPEG4/ISO/AVC
Duration : 1 h 52 min
Bit rate : 7 150 kb/s
Width : 1 280 pixels
Height : 536 pixels
Display aspect ratio : 2.40:1
Frame rate mode : Constant
Frame rate : 24.000 FPS
Color space : YUV
Chroma subsampling : 4:2:0
Bit depth : 8 bits
Scan type : Progressive
Bits/(Pixel*Frame) : 0.434
Stream size : 5.60 GiB (87%)
Writing library : x264 core 146 r2538 121396c
Encoding settings : cabac=1 / ref=11 / deblock=1:0:0 / analyse=0x3:0x111 / me=umh / subme=9 / psy=1 / psy_rd=1.00:0.20 / mixed_ref=1 / me_range=32 / chroma_me=1 / trellis=1 / 8x8dct=1 / cqm=0 / deadzone=21,11 / fast_pskip=1 / chroma_qp_offset=-3 / threads=6 / lookahead_threads=1 / sliced_threads=0 / nr=0 / decimate=1 / interlaced=0 / bluray_compat=0 / constrained_intra=0 / bframes=2 / b_pyramid=2 / b_adapt=2 / b_bias=0 / direct=3 / weightb=1 / open_gop=0 / weightp=2 / keyint=250 / keyint_min=23 / scenecut=40 / intra_refresh=0 / rc_lookahead=50 / rc=2pass / mbtree=1 / bitrate=7150 / ratetol=1.0 / qcomp=0.60 / qpmin=0 / qpmax=69 / qpstep=4 / cplxblur=20.0 / qblur=0.5 / ip_ratio=1.40 / aq=1:1.00
Default : Yes
Forced : No

Audio #1
ID : 2
Format : AC-3
Format/Info : Audio Coding 3
Commercial name : Dolby Digital
Codec ID : A_AC3
Duration : 1 h 52 min
Bit rate mode : Constant
Bit rate : 448 kb/s
Channel(s) : 6 channels
Channel layout : L R C LFE Ls Rs
Sampling rate : 48.0 kHz
Frame rate : 31.250 FPS (1536 SPF)
Bit depth : 16 bits
Compression mode : Lossy
Stream size : 360 MiB (5%)
Title : СВ Студия
Language : Russian
Service kind : Complete Main
Default : Yes
Forced : No

Audio #2
ID : 3
Format : AC-3
Format/Info : Audio Coding 3
Commercial name : Dolby Digital
Codec ID : A_AC3
Duration : 1 h 52 min
Bit rate mode : Constant
Bit rate : 640 kb/s
Channel(s) : 6 channels
Channel layout : L R C LFE Ls Rs
Sampling rate : 48.0 kHz
Frame rate : 31.250 FPS (1536 SPF)
Bit depth : 16 bits
Compression mode : Lossy
Stream size : 514 MiB (8%)
Language : English
Service kind : Complete Main
Default : No
Forced : No

pb.wtf



Скачать Город лжи через торрент https://i110.fastpic.ru/big/2019/0629/07/b6e9ec7251ab706ee2ab13ab39692d07.jpg Скачать фильм Город лжи через торрент бесплантно в хорошем качестве Описание: 7 сентября 1996 года был смертельно ранен рэпер Тупак Шакур, через полгода был застрелен главный подозреваемый в его убийстве - ... 10 10 3
Торрент: Зарегистрирован [2019-07-11 06:29] · скачан: 102 раз
Статус: √ проверено
Размер: 6.45 GB
Как cкачать? Как скачать Город лжи через торрент | qTorrent

% Раздел Тема Автор DL S | L
Фильмы 2019-2020 [DVDrip, WEB-DLRip, HDrip] (DUB, MVO) [ 2.26 GB ] Город лжи / City of Lies [2019 биография BDRip-AVC] 2xMVO [СВ Студия HDRezka Studio] bober100 Скачать
1 | 0
Фильмы 2018 [DVDrip, WEB-DLRip, HDrip] (DUB, MVO) [ 745 MB ] Город лжи / City of Lies [2018 BDRip-AVC] MVO [СВ Студия] sokol_ok Скачать
9 | 3
Фильмы 2018 [DVDrip, WEB-DLRip, HDrip] (DUB, MVO) [ 2.18 GB ] Город лжи / City of Lies [2018 BDRip-AVC] MVO [СВ Студия] sokol_ok Скачать
41 | 0
Фильмы 2018 [DVDrip, WEB-DLRip, HDrip] (DUB, MVO) [ 1.47 GB ] Город лжи / City of Lies [2018 BDRip-AVC] MVO [СВ Студия] sokol_ok Скачать
15 | 4
Фильмы 2019-2020 [DVDrip, WEB-DLRip, HDrip] (DUB, MVO) [ 1.46 GB ] Город лжи / City of Lies [2019 биография BDRip] [MVO] killermax2013 Скачать
3 | 0
Фильмы (Blu-ray, BD-Remux, HDDVD) [ 22.87 GB ] Город лжи / City of Lies [2018 BDRemux 1080p] MVO [СВ Студия] sheker187 Скачать
1 | 0
Фильмы [HD 720p, 1080p] (Хороший звук DUB, MVO) [ 10.55 GB ] Город лжи / City of Lies [2018 BDRip 1080p] MVO [СВ Студия] sheker187 Скачать
2 | 0

28-11-2019 20:33  

Отключить всю рекламу на сайте

    Дорогой пользователь! Огромная просьба, поблагодарите релизера, оцените раздачу и оставьте свои комментарий, если Вы скачали Город лжи через торрент бесплатно! Внесите свою лепту в развитие PiratBit!
    Комментировать посты могут только пользователи прошедшие не сложную регистрацию
    Показать сообщения:    

    Город лжи через торрент
    Скачать бесплатно Город лжи
    Город лжи скачать торрент
    Город лжи смотреть онлайн
    Cкачать фильм Город лжи бесплатно
    Город лжи скачать торрент в хорошем качестве
    Город лжи смотреть онлайн бесплатно в хорошем качестве


    Вы не можете начинать темы
    Вы не можете отвечать на сообщения
    Вы не можете редактировать свои сообщения
    Вы не можете удалять свои сообщения
    Вы не можете голосовать в опросах
    Вы не можете прикреплять файлы к сообщениям
    Вы можете скачивать файлы