Ссылка на приватное зеркало нашего сайта всего за 1$. Внимание количество ограничено!!!

2 сезон

iTunes

1 сезон

1

iTunes

iTunes

iTunes

1 сезон

RePack

30

ИГРА 18+

pack

ВАЖНО

!!Акция!!

Alien_RageХит недели

RePack

MK11
pack

Забери бонус

RePack

jed

!!Акция!!

Alien_Rage

RePack

fifa19

RePack

Assassins Creed: Odyssey

RePack

NEED FOR SPEED™ PAYBACK

4 сезон

9 сезон

Бесстыжие 9 сезон

Все сериалы

все сериалы на PB.wtf

RePack

FAR CRY 5
  

Волки и Овцы: Ход свиньёй (Владимир Николаев) [2018, Мультфильм, семейный, комедия, приключения, BDRip-AVC] [GER Transfer / iTunes] - ExKinoRay pb.wtf

Волки и Овцы: Ход свиньёй через торрент pb.wtf

Раздают: 1 [ 0 KB/s ]
Размер: 1.65 GB | Добавлен: 1 год 3 мес. назад | Торрент скачан:56 раз
Скачать  

11-07-2019 11:49 Волки и Овцы: Ход свиньёй Скачать торрент  

Информация о фильме
Оригинальное название: Волки и Овцы: Ход свиньёй
Год выпуска: 2018
Жанр: Мультфильм, полнометражный, семейный, комедия, приключения
Режиссер: Владимир Николаев
В ролях: Елизавета Боярская, Максим Матвеев, Галина Корнева, Антон Юрьев, Алексей Сигаев, Даниил Эльдаров

Описание:
В спокойной и размеренной жизни объединенного городка волков и овец появляются неожиданные гости — песец и маленькая овечка. Никто не ожидал, что они принесут с собой смертельную опасность, преодолеть которую можно лишь всем вместе. Ведь только сообща решаются большие проблемы и серьезные задачи — в единстве сила!




Страна: Россия
Студия: Кинокомпания CTB, Wizart Animation
Продолжительность: 01:14:50
Язык: Русский | iTunes

БЕЗ КАКОЙ-ЛИБО РЕКЛАМЫ!

Формат: MKV
Качество: BDRip-AVC
Видео: MPEG-4 AVC, 1024x428 (2.40:1), 23.976 fps, 2324 Kbps, 0.221 bit/pixel
Аудио 1: 48 kHz, AC3, 5.1, 384 Kbps | RUS |
Аудио 2: 48 kHz, AC3, 5.1, 448 Kbps | ENG
General
Unique ID : 183814375155639667321592555322553256763 (0x8A495C660BEE0D40970BE2222CD1CB3B)
Complete name : F:\Sheep.and.Wolves.2018.iTunes.BDRip.AVC.ExKinoRay.mkv
Format : Matroska
Format version : Version 2
File size : 1.65 GiB
Duration : 1 h 14 min
Overall bit rate : 3 155 kb/s
Movie name : Волки и Овцы: Ход свиньёй 2018 from ExKinoRay
Encoded date : UTC 2019-07-11 11:11:08
Writing application : mkvmerge v5.6.0 ('Kenya Kane') built on May 27 2012 16:44:04
Writing library : libebml v1.2.3 + libmatroska v1.3.0

Video
ID : 1
Format : AVC
Format/Info : Advanced Video Codec
Format profile : High@L4.1
Format settings, CABAC : Yes
Format settings, ReFrames : 12 frames
Codec ID : V_MPEG4/ISO/AVC
Duration : 1 h 14 min
Bit rate : 2 324 kb/s
Width : 1 024 pixels
Height : 428 pixels
Display aspect ratio : 2.40:1
Frame rate mode : Constant
Frame rate : 23.976 (23976/1000) FPS
Color space : YUV
Chroma subsampling : 4:2:0
Bit depth : 8 bits
Scan type : Progressive
Bits/(Pixel*Frame) : 0.221
Stream size : 1.18 GiB (72%)
Title : Enigma
Writing library : x264 core 152 r2851 ba24899
Encoding settings : cabac=1 / ref=12 / deblock=1:-2:-2 / analyse=0x3:0x113 / me=umh / subme=10 / psy=1 / psy_rd=1.03:0.10 / mixed_ref=1 / me_range=32 / chroma_me=1 / trellis=2 / 8x8dct=1 / cqm=0 / deadzone=21,11 / fast_pskip=0 / chroma_qp_offset=-3 / threads=12 / lookahead_threads=3 / sliced_threads=0 / nr=0 / decimate=0 / interlaced=0 / bluray_compat=0 / constrained_intra=0 / bframes=10 / b_pyramid=2 / b_adapt=2 / b_bias=0 / direct=3 / weightb=1 / open_gop=0 / weightp=2 / keyint=240 / keyint_min=23 / scenecut=40 / intra_refresh=0 / rc=2pass / mbtree=0 / bitrate=2324 / ratetol=1.0 / qcomp=0.60 / qpmin=0 / qpmax=51 / qpstep=4 / cplxblur=20.0 / qblur=0.5 / ip_ratio=1.40 / pb_ratio=1.30 / aq=1:1.00
Language : English
Default : Yes
Forced : No
Color range : Limited
Color primaries : BT.709
Transfer characteristics : BT.709
Matrix coefficients : BT.709

Audio #1
ID : 2
Format : AC-3
Format/Info : Audio Coding 3
Mode extension : CM (complete main)
Format settings, Endianness : Big
Codec ID : A_AC3
Duration : 1 h 14 min
Bit rate mode : Constant
Bit rate : 384 kb/s
Channel(s) : 6 channels
Channel positions : Front: L C R, Side: L R, LFE
Sampling rate : 48.0 kHz
Frame rate : 31.250 FPS (1536 spf)
Compression mode : Lossy
Stream size : 206 MiB (12%)
Title : iTunes
Language : Russian
Default : Yes
Forced : No

Audio #2
ID : 3
Format : AC-3
Format/Info : Audio Coding 3
Mode extension : CM (complete main)
Format settings, Endianness : Big
Codec ID : A_AC3
Duration : 1 h 14 min
Bit rate mode : Constant
Bit rate : 448 kb/s
Channel(s) : 6 channels
Channel positions : Front: L C R, Side: L R, LFE
Sampling rate : 48.0 kHz
Frame rate : 31.250 FPS (1536 spf)
Compression mode : Lossy
Stream size : 240 MiB (14%)
Title : Dub
Language : English
Default : No
Forced : No

Menu
00:00:00.000 : de:Глава 01
00:05:11.353 : de:Глава 02
00:12:37.131 : de:Глава 03
00:17:46.774 : de:Глава 04
00:25:51.258 : de:Глава 05
00:32:43.170 : de:Глава 06
00:37:31.207 : de:Глава 07
00:43:51.212 : de:Глава 08
00:49:38.601 : de:Глава 09
00:56:49.698 : de:Глава 10
01:00:47.394 : de:Глава 11
01:08:55.256 : de:Глава 12


Релиз от:

Автор релиза: pb.wtf



Скачать Волки и Овцы: Ход свиньёй через торрент https://b.radikal.ru/b05/1902/f8/2ff528fc4fff.jpg Скачать фильм Волки и Овцы: Ход свиньёй через торрент бесплантно в хорошем качестве Описание: В спокойной и размеренной жизни объединенного городка волков и овец появляются неожиданные гости — песец и маленькая овечка. ... 9.3 10 3
Info! Золотая раздача, скачанное не засчитывается.
Торрент: Зарегистрирован [2019-07-11 11:49] · скачан: 56 раз
Статус: √ проверено
Размер: 1.65 GB
Как cкачать? Как скачать Волки и Овцы: Ход свиньёй через торрент | qTorrent

% Раздел Тема Автор DL S | L
Наши мультфильмы [ 1.44 GB ] Волки и Овцы: Ход свиньёй [2018 Мультфильм WEB-DLRip-AVC] - ExKinoRay Enigma2010 Скачать
3 | 0

28-11-2019 20:33  

Отключить всю рекламу на сайте

    Дорогой пользователь! Огромная просьба, поблагодарите релизера, оцените раздачу и оставьте свои комментарий, если Вы скачали Волки и Овцы: Ход свиньёй через торрент бесплатно! Внесите свою лепту в развитие PiratBit!
    Комментировать посты могут только пользователи прошедшие не сложную регистрацию
    Показать сообщения:    

    Волки и Овцы: Ход свиньёй через торрент
    Скачать бесплатно Волки и Овцы: Ход свиньёй
    Волки и Овцы: Ход свиньёй скачать торрент
    Волки и Овцы: Ход свиньёй смотреть онлайн
    Cкачать фильм Волки и Овцы: Ход свиньёй бесплатно
    Волки и Овцы: Ход свиньёй скачать торрент в хорошем качестве
    Волки и Овцы: Ход свиньёй смотреть онлайн бесплатно в хорошем качестве


    Вы не можете начинать темы
    Вы не можете отвечать на сообщения
    Вы не можете редактировать свои сообщения
    Вы не можете удалять свои сообщения
    Вы не можете голосовать в опросах
    Вы не можете прикреплять файлы к сообщениям
    Вы можете скачивать файлы