Мега распродажа FORZA HORIZON 4 ULTIMATE+ВСЕ DLC+ОНЛАЙН всего за 499р. 349 руб. (супер цена). Внимание количество ограничено!!!

iTunes

1+1

iTunes

мы

iTunes

1

1 сезон

Чернобыль

1 сезон

Ральф против интернета

Лицензия

ПШазам

8 сезон

Игра престолов

Лицензия

30
pack

ВАЖНО

!!Акция!!

Alien_RageХит недели

RePack

Resident Evil 21

ИГРА 18+

pack

RePack

Metro:Exodus

!!Акция!!

Alien_Rage

RePack

fifa19

RePack

Assassins Creed: Odyssey

RePack

NEED FOR SPEED™ PAYBACK

3 сезон

9 сезон

Бесстыжие 9 сезон

Все сериалы

все сериалы на PB.wtf

RePack

FAR CRY 5
Ребята, катастрофически не хватает 2730р. для оплаты серверов за ИЮНЬ (всвязи с блокировками трафик упал в 3 раза), 1-2р., выручайте.
  

Американская принцесса / American Princess / Сезон: 1 / Серии: 1-10 из 10 (Марк А. Берли, Клер Скэнлон, Аня Адамс) [2019, драма, комедия, WEBRip 1080p] MVO [TVShows] pb.wtf

Американская принцесса через торрент pb.wtf

Размер: 29.7 GB | Добавлен: 12 д. назад | Торрент скачан:2 раза
Скачать  

11-07-2019 12:05 Американская принцесса Скачать торрент  

Американская принцесса / American Princess Год выпуска: 2019
Страна: США
Жанр: драма, комедия
Продолжительность: ~00:42:00
Перевод: Профессиональный (многоголосый) | TVShows
Субтитры: отсутствуют

Режиссер: Марк А. Берли, Клер Скэнлон, Аня Адамс

rating


В ролях: Джорджия Флуд, Лукас Нефф, Шона Кофоед, Рори О’Мэлли, Мэри Холлис Инбоден, Лукас Хэзлет, Эрин Пинеда, Мэтт Питерс, Софи фон Хэйзелберг

Описание: Аманду бросает жених у алтаря, и её жизнь переворачивается с ног на голову. Так девушка оказывается в окружении странных людей, которые носят средневековую одежду. Именно на ярмарке эпохи Возрождения, окружённая причудливым изгоями общества, она поймёт, чего ей не хватало в жизни...

Качество: WEBRip 1080p
Формат: MKV

Видео: 1920x1080 (16:9), 23.976 fps, MPEG-4 AVC ~10.4 Mbps avg
Аудио#1: 48.0 kHz, AC3 Dolby Digital, 2/0 (L,R) ch, ~192 kbps | RUS / MVO
Аудио#2: 48.0 kHz, HE-Advanced Audio Codec, 2/0 (L,R) ch, ~317 kbps | ENG
скриншот  скриншот  скриншот  

General
Unique ID: 189546439366676929660158835838378248695 (0x8E9950FBD7ED24482253FFFB809309F7)
Complete name: American Princess.S01E02.1080p.TVShows.mkv
Format: Matroska
Format version: Version 4 / Version 2
File size: 3.15 GiB
Duration: 41 min 29 s
Overall bit rate: 10.9 Mb/s
Encoded date: UTC 2019-06-08 17:38:17
Writing application: mkvmerge v33.1.0 ('Primrose') 64-bit
Writing library: libebml v1.3.7 + libmatroska v1.5.0

Video
ID: 1
Format: AVC
Format/Info: Advanced Video Codec
Format profile: High@L4.1
Format settings: CABAC / 4 Ref Frames
Format settings, CABAC: Yes
Format settings, ReFrames: 4 frames
Codec ID: V_MPEG4/ISO/AVC
Duration: 41 min 29 s
Bit rate: 10.4 Mb/s
Width: 1 920 pixels
Height: 1 080 pixels
Display aspect ratio: 16:9
Frame rate mode: Constant
Frame rate: 23.976 (24000/1001) FPS
Color space: YUV
Chroma subsampling: 4:2:0
Bit depth: 8 bits
Scan type: Progressive
Bits/(Pixel*Frame): 0.208
Stream size: 3.00 GiB (95%)
Language: English
Default: Yes
Forced: No
Color range: Limited
Color primaries: BT.709
Transfer characteristics: BT.709
Matrix coefficients: BT.709

Audio #1
ID: 2
Format: AC-3
Format/Info: Audio Coding 3
Codec ID: A_AC3
Duration: 41 min 29 s
Bit rate mode: Constant
Bit rate: 192 kb/s
Channel(s): 2 channels
Channel positions: Front: L R
Sampling rate: 48.0 kHz
Frame rate: 31.250 FPS (1536 SPF)
Bit depth: 16 bits
Compression mode: Lossy
Stream size: 57.0 MiB (2%)
Title: TVShows
Language: Russian
Service kind: Complete Main
Default: Yes
Forced: Yes

Audio #2
ID: 3
Format: AAC
Format/Info: Advanced Audio Codec
Format profile: LC
Codec ID: A_AAC-2
Duration: 41 min 29 s
Bit rate: 317 kb/s
Channel(s): 2 channels
Channel positions: Front: L R
Sampling rate: 48.0 kHz
Frame rate: 46.875 FPS (1024 SPF)
Compression mode: Lossy
Stream size: 94.2 MiB (3%)
Title: Original
Language: English
Default: No
Forced: No

pb.wtf



Скачать Американская принцесса через торрент http://c.radikal.ru/c28/1907/e1/219b014a035c.jpg Скачать фильм Американская принцесса через торрент бесплантно в хорошем качестве Описание: Аманду бросает жених у алтаря, и её жизнь переворачивается с ног на голову. Так девушка оказывается в окружении странных людей, ... 7.7 10 3
Info! Золотая раздача, скачанное не засчитывается.
Торрент: Зарегистрирован [2019-07-11 12:05] · скачан: 2 раз
Статус: √ проверено
Размер: 29.7 GB
Как cкачать? Как скачать Американская принцесса через торрент | qTorrent

% Раздел Тема Автор DL S | L
Зарубежные сериалы [ 20.6 GB ] Американская принцесса / American Princess / Сезон: 1 / Серии: 1-10 из 10 [2019 WEBRip 1080p] [MVO] killermax2013 Скачать
1 | 0


>> Регистрируемся здесь <<






Отзывы и комментарии о схеме читаем и пишем здесь: ---> Отзывы и комментарии о схеме

Новые благодарочки в телеграм довольных пользователей:
скриншот   скриншот   скриншот   скриншот   скриншот
    Дорогой пользователь! Огромная просьба, поблагодарите релизера, оцените раздачу и оставьте свои комментарий, если Вы скачали Американская принцесса через торрент бесплатно! Внесите свою лепту в развитие PiratBit!
    Комментировать посты могут только пользователи прошедшие не сложную регистрацию
    Показать сообщения:    

    Американская принцесса через торрент
    Скачать бесплатно Американская принцесса
    Американская принцесса скачать торрент
    Американская принцесса смотреть онлайн
    Cкачать фильм Американская принцесса бесплатно
    Американская принцесса скачать торрент в хорошем качестве
    Американская принцесса смотреть онлайн бесплатно в хорошем качестве


    Вы не можете начинать темы
    Вы не можете отвечать на сообщения
    Вы не можете редактировать свои сообщения
    Вы не можете удалять свои сообщения
    Вы не можете голосовать в опросах
    Вы не можете прикреплять файлы к сообщениям
    Вы можете скачивать файлы