1 сезон

1 сезон

iTunes

1

КиноПоиск HD

Кинопоиск HD

iTunes

13

1 сезон

RePack

30

Ultimate

ВАЖНО

ИГРА 18+

pack

RePack

MK11
pack

Легкие деньги

RePack

jed

RePack

fifa19

RePack

RDR2

RePack

NEED FOR SPEED™ PAYBACK

4 сезон

9 сезон

Бесстыжие 9 сезон

Все сериалы

все сериалы на PB.wtf

RePack

FAR CRY 5
  
Magnet ссылка

Босиком по мостовой / Barfuss (Тиль Швайгер) [2005 г., драма, мелодрама, комедия, DVDRip-AVC от KORSAR] [DUB] pb.wtf

Босиком по мостовой через торрент pb.wtf

Размер: 2.05 GB | Добавлен: 1 год 9 мес. назад | Торрент скачан:21 раз
Скачать  

11-07-2019 13:12 Босиком по мостовой Скачать торрент  

Босиком по мостовой / Barfuss
Год выхода: 2005
Жанр: драма, мелодрама, комедия
Режиссер: Тиль Швайгер
В ролях: Тиль Швайгер, Йоханна Вокалек, Надя Тиллер, Михаэль Мендль, Штеффен Винк, Александра Нельдель, Имоген Когге, Андреа Паула Пауль, Янине Кунце, Армин Роде

О фильме: На что ты способен ради любви? На самом деле Ника Келлера в настоящее время занимают совсем другие вопросы. Он не удерживается ни на одном рабочем месте, и его семья — особенно отчим Хайнрих и брат Виктор — считают его законченным неудачником. Лишь его мать продолжает в него верить. Работая уборщиком в психиатрической больнице, Ник в последнюю секунду спасает от самоубийства девушку Лайлу, что приводит к непредвиденным последствиям: Лайла тайно выслеживает своего спасителя и однажды вечером неожиданно появляется в дверях его квартиры. В ночной сорочке и босиком. Все попытки Ника избавиться от Лайлы кончаются неудачей. Девушка твёрдо решила остаться у него навсегда. И вот необычная парочка — Ник, впервые в жизни вынужденный нести за кого-то ответственность, и Лайла, смотрящая на мир изумлёнными глазами ребёнка, — отправляется в путешествие, которое их сблизит и навсегда изменит их жизни.



Страна: Германия
Продолжительность: 01:50:21
Перевод: Профессиональный (полное дублирование)

Релиз от:

Кодек: x264
Качество: DVDRip-AVC
Видео: AVC, 712x436@1024x436, 25.000 fps, 1839 Kbps
Звук: AC-3, 6 ch, 384 Kbps, AC-3, 6 ch, 384 Kbps - Ger
Субтитры: Русские

x264 [info]: frame I:1680 Avg QP:16.42 size: 64996
x264 [info]: frame P:37237 Avg QP:17.94 size: 23321
x264 [info]: frame B:126610 Avg QP:20.57 size: 4630
x264 [info]: consecutive B-frames: 2.2% 2.3% 13.5% 18.2% 22.8% 33.8% 3.5% 2.5% 0.6% 0.4% 0.3%
------------------------------------------------------------------------------------------------------------------------
Общее
Уникальный идентификатор : 252387111384997010843909634081087466607 (0xBDDFFD5273DB0D6BB60EE7F3445AAC6F)
Полное имя : D:\Босиком по мостовой_2005-DVDRip-AVC_KORSAR.mkv
Формат : Matroska
Версия формата : Version 2
Размер файла : 2,05 Гбайт
Продолжительность : 1 ч. 50 м.
Общий поток : 2660 Кбит/сек
Название фильма : Босиком по мостовой_2005-DVDRip-AVC_KORSAR
Дата кодирования : UTC 2019-07-06 18:03:20
Программа кодирования : mkvmerge v5.8.0 ('No Sleep / Pillow') built on Sep 2 2012 15:37:04
Библиотека кодирования : libebml v1.2.3 + libmatroska v1.3.0

Видео
Идентификатор : 1
Формат : AVC
Формат/Информация : Advanced Video Codec
Профиль формата : High@L4.1
Настройки формата : CABAC / 14 Ref Frames
Параметр CABAC формата : Да
Параметр RefFrames формата : 14 кадров
Идентификатор кодека : V_MPEG4/ISO/AVC
Продолжительность : 1 ч. 50 м.
Битрейт : 1839 Кбит/сек
Ширина : 712 пикселей
Высота : 436 пикселей
Соотношение сторон : 2,35:1
Режим частоты кадров : Постоянный
Частота кадров : 25,000 кадров/сек
Цветовое пространство : YUV
Субдискретизация насыщенности : 4:2:0
Битовая глубина : 8 бит
Тип развёртки : Прогрессивная
Бит/(Пиксели*Кадры) : 0.237
Размер потока : 1,42 Гбайт (69%)
Библиотека кодирования : x264 core 152 r2851kMod ba24899
Настройки программы : cabac=1 / ref=14 / deblock=1:-2:-2 / analyse=0x3:0x133 / me=umh / subme=10 / psy=1 / fade_compensate=0.00 / psy_rd=1.05:0.12 / mixed_ref=1 / me_range=40 / chroma_me=1 / trellis=2 / 8x8dct=1 / cqm=0 / deadzone=21,11 / fast_pskip=1 / chroma_qp_offset=-3 / threads=12 / lookahead_threads=3 / sliced_threads=0 / nr=0 / decimate=1 / interlaced=0 / bluray_compat=0 / constrained_intra=0 / bframes=10 / b_pyramid=2 / b_adapt=2 / b_bias=0 / direct=1 / weightb=1 / open_gop=0 / weightp=2 / keyint=250 / keyint_min=25 / scenecut=40 / intra_refresh=0 / rc=crf / mbtree=0 / crf=17.8000 / qcomp=0.63 / qpmin=0 / qpmax=30 / qpstep=4 / ip_ratio=1.40 / pb_ratio=1.30 / aq=1:1.00
Язык : English
Default : Да
Forced : Нет
Цветовой диапазон : Limited
Основные цвета : BT.601 PAL
Характеристики трансфера : BT.470 System B/G
Коэффициенты матрицы : BT.470 System B/G

Аудио #1
Идентификатор : 2
Формат : AC-3
Формат/Информация : Audio Coding 3
Коммерческое название : Dolby Digital
Идентификатор кодека : A_AC3
Продолжительность : 1 ч. 50 м.
Вид битрейта : Постоянный
Битрейт : 384 Кбит/сек
Каналы : 6 каналов
ChannelLayout : L R C LFE Ls Rs
Частота : 48,0 КГц
Частота кадров : 31,250 кадров/сек (1536 SPF)
Битовая глубина : 16 бит
Метод сжатия : С потерями
Размер потока : 303 Мбайт (14%)
Язык : Russian
ServiceKind/String : Complete Main
Default : Да
Forced : Нет

Аудио #2
Идентификатор : 3
Формат : AC-3
Формат/Информация : Audio Coding 3
Коммерческое название : Dolby Digital
Идентификатор кодека : A_AC3
Продолжительность : 1 ч. 50 м.
Вид битрейта : Постоянный
Битрейт : 384 Кбит/сек
Каналы : 6 каналов
ChannelLayout : L R C LFE Ls Rs
Частота : 48,0 КГц
Частота кадров : 31,250 кадров/сек (1536 SPF)
Битовая глубина : 16 бит
Метод сжатия : С потерями
Размер потока : 303 Мбайт (14%)
Язык : German
ServiceKind/String : Complete Main
Default : Нет
Forced : Нет

Текст
Идентификатор : 4
Формат : UTF-8
Идентификатор кодека : S_TEXT/UTF8
Идентификатор кодека/Информация : UTF-8 Plain Text
Язык : Russian
Default : Нет
Forced : Нет

Меню
00:00:00.000 : en:Chapter 1
00:05:28.440 : en:Chapter 2
00:12:02.160 : en:Chapter 3
00:17:39.360 : en:Chapter 4
00:24:07.440 : en:Chapter 5
00:30:23.520 : en:Chapter 6
00:35:07.680 : en:Chapter 7
00:40:15.360 : en:Chapter 8
00:46:20.400 : en:Chapter 9
00:53:24.120 : en:Chapter 10
00:58:27.600 : en:Chapter 11
01:07:04.080 : en:Chapter 12
01:12:09.960 : en:Chapter 13
01:17:22.920 : en:Chapter 14
01:23:25.680 : en:Chapter 15
01:30:11.760 : en:Chapter 16
01:36:47.760 : en:Chapter 17
01:42:52.440 : en:Chapter 18
01:50:20.600 : en:Chapter 19
pb.wtf



Скачать Босиком по мостовой через торрент https://d.radikal.ru/d31/1907/32/717cfce935c8.png Скачать фильм Босиком по мостовой через торрент бесплантно в хорошем качестве О фильме: На что ты способен ради любви? На самом деле Ника Келлера в настоящее время занимают совсем другие вопросы. Он не удерживается ни ... 10 10 1
Торрент: Зарегистрирован [2019-07-11 13:12] · скачан: 21 раз
Статус: √ проверено
Размер: 2.05 GB
Как cкачать? Как скачать Босиком по мостовой через торрент | UTorrent

% Раздел Тема Автор DL S | L
Релизы по Парсеру [Игры, Сериалы и Фильмы и другое...] [ 1.46 GB ] Босиком по мостовой / Barfuss [2005 Германия DVDRip] Dub sanekbest1 Скачать
2 | 0
Фильмы 2001-2005 [ 1.45 GB ] Босиком по мостовой / Barfuss [2005 Германия HDTVRip] [Open Matte] killermax2013 Скачать
1 | 0
Фильмы 2001-2005 [ 1.46 GB ] Босиком по мостовой / Barfuss [2005 DVDRip Полное дублирование] akcent Скачать
1 | 0

28-11-2019 20:33  

Отключить всю рекламу на сайте

    Дорогой пользователь! Огромная просьба, поблагодарите релизера, оцените раздачу и оставьте свои комментарий, если Вы скачали Босиком по мостовой через торрент бесплатно! Внесите свою лепту в развитие PiratBit!
    Комментировать посты могут только пользователи прошедшие не сложную регистрацию
    Показать сообщения:    

    Босиком по мостовой через торрент
    Скачать бесплатно Босиком по мостовой
    Босиком по мостовой скачать торрент
    Босиком по мостовой смотреть онлайн
    Cкачать фильм Босиком по мостовой бесплатно
    Босиком по мостовой скачать торрент в хорошем качестве
    Босиком по мостовой смотреть онлайн бесплатно в хорошем качестве


    Вы не можете начинать темы
    Вы не можете отвечать на сообщения
    Вы не можете редактировать свои сообщения
    Вы не можете удалять свои сообщения
    Вы не можете голосовать в опросах
    Вы не можете прикреплять файлы к сообщениям
    Вы можете скачивать файлы