Мега распродажа FORZA HORIZON 4 ULTIMATE+ВСЕ DLC+ОНЛАЙН всего за 499р. 349 руб. (супер цена). Внимание количество ограничено!!!

iTunes

1+1

iTunes

мы

iTunes

1

1 сезон

Чернобыль

1 сезон

Ральф против интернета

Лицензия

ПШазам

8 сезон

Игра престолов

Лицензия

30
pack

ВАЖНО

!!Акция!!

Alien_RageХит недели

RePack

Resident Evil 21

ИГРА 18+

pack

RePack

Metro:Exodus

!!Акция!!

Alien_Rage

RePack

fifa19

RePack

Assassins Creed: Odyssey

RePack

NEED FOR SPEED™ PAYBACK

3 сезон

9 сезон

Бесстыжие 9 сезон

Все сериалы

все сериалы на PB.wtf

RePack

FAR CRY 5
Ребята, катастрофически не хватает 2730р. для оплаты серверов за ИЮНЬ (всвязи с блокировками трафик упал в 3 раза), 1-2р., выручайте.
  

Очень странные дела / Stranger Things / 3 сезон / 1-8 серии из 8 (Мэтт Даффер, Росс Даффер) [2019, ужасы, триллер, драма, UHD WEB-DL 2160p] MVO [AMS] pb.wtf

Очень странные дела через торрент pb.wtf

Раздают: 1 [ 4 MB/s ] Качают: 2 [ 0 KB/s ]
Размер: 51.78 GB | Добавлен: 11 д. назад | Торрент скачан:13 раз
Скачать  

11-07-2019 15:28 Очень странные дела Скачать торрент  

Очень странные дела / Stranger Things«The world is turning upside down»
Год выпуска: 2019
Страна: США
Жанр: ужасы, фантастика, фэнтези, триллер, драма, детектив
Продолжительность: 8 x ~ 00:55:00
Перевод: Профессиональный (многоголосый закадровый) (AMS)
Субтитры: Русские, английские
Режиссер: Мэтт Даффер, Росс Даффер, Шон Леви
В ролях:

Вайнона Райдер (Joyce Byers), Дэвид Харбор (Jim Hopper), Финн Вулфард (Mike Wheeler), Милли Бобби Браун (Eleven), Гейтен Матараццо (Dustin Henderson), Калеб МакЛафлин (Lucas Sinclair), Наталия Дайер (Nancy Wheeler), Чарли Хитон (Jonathan Byers), Кара Буоно (Karen Wheeler), Джо Кири (Steve Harrington), Ноа Шнапп (Will Byers), Сэди Синк (Max Mayfield)
Описание:
Действие сериала разворачивается в 80-х годах в тихом провинциальном городке. Благоприятное течение местной жизни нарушает загадочное исчезновение подростка по имени Уилл. Выяснить обстоятельства дела полны решимости родные мальчика и местный шериф. Также события затрагивают лучшего друга Уилла - Майка. Он начинает собственное расследование. Майк уверен, что близок к разгадке, и теперь ему предстоит оказаться в эпицентре ожесточенной битвы потусторонних сил.
Рейтинг:

Качество: UHD WEB-DL 2160p
Формат: MKV
Видео: HEVC HDR, 3840x2160 (16:9), 23.976 fps, ~ 15600 kbps, 0.078 bit/pixel
Аудио: Русский, AC3, 48 KHz, 6 channels, 640 kbps
Аудио: Английский, AC3, 48 KHz, 6 channels, 640 kbps

Реклама: Присутствует звуковая (два раза: в начале и конце по 10 сек)
1. «Сюзи, прием?» (Suzie, Do You Copy?)
2. «Тусовщики из супермаркета» (The Mall Rats)
3. «Дело о пропавшем спасателе» (The Case of the Missing Lifeguard)
4. «Тест сауной» (The Sauna Test)
5. «Источник» (The Source)
6. «День рождения» (The Birthday)
7. «Укус» (The Bite)
8. «Битва за торговый центр Starcourt» (The Battle of Starcourt)
General
Unique ID : 132654952634964175440939531958055169542 (0x63CC6A20485E8A0CA1044EF43E416E06)
Complete name : /Stranger.Things.S03.2160p.WEB-DL.HDR.HEVC.AMS/Stranger.Things.S03E01.2160p.WEB-DL.HDR.HEVC.AMS.mkv
Format : Matroska
Format version : Version 4
File size : 5.82 GiB
Duration : 50mn 33s
Overall bit rate : 16.5 Mbps
Movie name : Stranger Things 3x01 - MVO AMS
Encoded date : UTC 2019-07-10 12:51:04
Writing application : mkvmerge v8.2.0 ('World of Adventure') 64bit
Writing library : libebml v1.3.1 + libmatroska v1.4.2

Video
ID : 1
Format : HEVC
Format/Info : High Efficiency Video Coding
Format profile : Main 10@L5@Main
HDR format : SMPTE ST 2086, HDR10 compatible
Codec ID : V_MPEGH/ISO/HEVC
Duration : 49mn 15s
Bit rate : 15.6 Mbps
Width : 3 840 pixels
Height : 2 160 pixels
Display aspect ratio : 16:9
Frame rate mode : Constant
Frame rate : 23.976 (24000/1001) fps
Color space : YUV
Chroma subsampling : 4:2:0 (Type 2)
Bit depth : 10 bits
Bits/(Pixel*Frame) : 0.078
Stream size : 5.37 GiB (92%)
Default : Yes
Forced : No
Color range : Limited
Color primaries : BT.2020
Transfer characteristics : PQ
Matrix coefficients : BT.2020 non-constant
Mastering display color primaries : Display P3
Mastering display luminance : min: 0.0050 cd/m2, max: 4000 cd/m2
Maximum Content Light Level : 756 cd/m2
Maximum Frame-Average Light Level : 153 cd/m2

Audio #1
ID : 2
Format : AC-3
Format/Info : Audio Coding 3
Commercial name : Dolby Digital
Codec ID : A_AC3
Duration : 50mn 33s
Bit rate mode : Constant
Bit rate : 640 Kbps
Channel(s) : 6 channels
Channel layout : L R C LFE Ls Rs
Sampling rate : 48.0 KHz
Frame rate : 31.250 fps (1536 SPF)
Bit depth : 16 bits
Compression mode : Lossy
Stream size : 231 MiB (4%)
Title : MVO AMS
Language : Russian
Service kind : Complete Main
Default : Yes
Forced : No

Audio #2
ID : 3
Format : E-AC-3
Format/Info : Enhanced AC-3
Commercial name : Dolby Digital Plus
Codec ID : A_EAC3
Duration : 50mn 33s
Bit rate mode : Constant
Bit rate : 640 Kbps
Channel(s) : 6 channels
Channel layout : L R C LFE Ls Rs
Sampling rate : 48.0 KHz
Frame rate : 31.250 fps (1536 SPF)
Compression mode : Lossy
Stream size : 231 MiB (4%)
Title : Original
Language : English
Service kind : Complete Main
Default : No
Forced : No

Text #1
ID : 4
Format : UTF-8
Codec ID : S_TEXT/UTF8
Codec ID/Info : UTF-8 Plain Text
Duration : 48mn 40s
Bit rate : 60 bps
Count of elements : 496
Stream size : 21.7 KiB (0%)
Title : Rus-Subs
Language : Russian
Default : No
Forced : No

Text #2
ID : 5
Format : UTF-8
Codec ID : S_TEXT/UTF8
Codec ID/Info : UTF-8 Plain Text
Duration : 39mn 59s
Bit rate : 0 bps
Count of elements : 14
Stream size : 297 Bytes (0%)
Title : Eng-Subs (Forced)
Language : English
Default : No
Forced : No

Text #3
ID : 6
Format : UTF-8
Codec ID : S_TEXT/UTF8
Codec ID/Info : UTF-8 Plain Text
Duration : 42mn 52s
Bit rate : 55 bps
Count of elements : 622
Stream size : 17.5 KiB (0%)
Title : Eng-Subs
Language : English
Default : No
Forced : No

Text #4
ID : 7
Format : UTF-8
Codec ID : S_TEXT/UTF8
Codec ID/Info : UTF-8 Plain Text
Duration : 48mn 53s
Bit rate : 59 bps
Count of elements : 778
Stream size : 21.2 KiB (0%)
Title : Eng-Subs (SDH)
Language : English
Default : No
Forced : No

Menu
00:05:06.015 : en:Intro start
00:05:54.521 : en:Intro end
Когда раздача ведётся путём добавления новых серий, при каждом добавлении создётся новый торрент. Чтобы начать докачку новой серии, пользователям необходимо сделать следующее:
(1) остановить скачивание,
(2) удалить старый торрент у себя из клиента (старые серии удалять не надо),
(3) скачать новый торрент и запустить его у себя в клиенте вместо старого, при этом указать клиенту путь в старую папку, куда и должно происходить скачивание новых серий.
Ваш клиент при этом должен произвести хеширование (проверку) старой папки (если не производит сам - помогите ему сделать это), и будет докачивать только те серии, которых у вас ещё нет. Старые серии при этом не удаляются, а продолжают раздаваться!
Eсли вы уже удалили старые серии, то предотвратить повторную закачку старых серий можно, отжав галочку в соответсвующих местах при запуске нового торрента. По возможности, желательно не удалять старые серии как можно дольше, чтобы релизёр не столько продолжал раздавать старые серии, а смог сконцентрироваться на новых.
pb.wtf



Скачать Очень странные дела через торрент https://d.radikal.ru/d02/1907/8f/d2f6d9ac4d02.png Скачать фильм Очень странные дела через торрент бесплантно в хорошем качестве Описание: Действие сериала разворачивается в 80-х годах в тихом провинциальном городке. Благоприятное течение местной жизни нарушает ... 10 10 1
Info! Золотая раздача, скачанное не засчитывается.
Торрент: Зарегистрирован [2019-07-11 15:28] · скачан: 13 раз
Статус: √ проверено
Размер: 51.78 GB
Как cкачать? Как скачать Очень странные дела через торрент | qTorrent

% Раздел Тема Автор DL S | L
Зарубежные сериалы [ 7.92 GB ] Очень странные дела / Загадочные события / Stranger Things / Сезон: 3 / Серии: 1-5 из 8 [2019 WEBRip 720p] MVO [Lostfilm] bober100 Скачать
5 | 1
Зарубежные сериалы [ 23.62 GB ] Очень странные дела / Загадочные события / Stranger Things / Сезон: 3 / Серии: 1-5 из 8 [2019 WEB-DL 1080p] MVO [LostFilm] bober100 Скачать
3 | 0
Зарубежные сериалы [ 54.66 GB ] Очень странные дела / Stranger Things / 3 сезон / 1-8 серии из 8 [2019 UHD WEB-DL 2160p] [Dolby Vision TV] MVO [AMS] sheker187 Скачать
1 | 0
Зарубежные сериалы [ 51.78 GB ] Очень странные дела / Stranger Things / 3 сезон / 1-8 серии из 8 [2019 UHD WEB-DL 2160p] DUB [Пифагор] sheker187 Скачать
3 | 2
Зарубежные сериалы [ 126.92 GB ] Очень странные дела / Stranger Things / 3 сезон / 1-8 серии из 8 [2019 UHD WEB-DL 2160p] [SDR] DUB [Пифагор] sheker187 Скачать
4 | 0
Зарубежные сериалы [ 51.84 GB ] Очень странные дела / Stranger Things / Сезон: 3 / Серии: 1-8 из 8 [2019 UHD WEB-DL 2160p] [SDR] DUB [Пифагор] bober100 Скачать
5 | 0
Зарубежные сериалы [ 12.27 GB ] Очень странные дела / Stranger Things / Сезон: 3 / Серии: 1-8 из 8 [2019 WEBRip 720p] killermax2013 Скачать
28 | 4


>> Регистрируемся здесь <<






Отзывы и комментарии о схеме читаем и пишем здесь: ---> Отзывы и комментарии о схеме

Новые благодарочки в телеграм довольных пользователей:
скриншот   скриншот   скриншот   скриншот   скриншот
    Дорогой пользователь! Огромная просьба, поблагодарите релизера, оцените раздачу и оставьте свои комментарий, если Вы скачали Очень странные дела через торрент бесплатно! Внесите свою лепту в развитие PiratBit!
    Комментировать посты могут только пользователи прошедшие не сложную регистрацию
    Показать сообщения:    

    Очень странные дела через торрент
    Скачать бесплатно Очень странные дела
    Очень странные дела скачать торрент
    Очень странные дела смотреть онлайн
    Cкачать фильм Очень странные дела бесплатно
    Очень странные дела скачать торрент в хорошем качестве
    Очень странные дела смотреть онлайн бесплатно в хорошем качестве


    Вы не можете начинать темы
    Вы не можете отвечать на сообщения
    Вы не можете редактировать свои сообщения
    Вы не можете удалять свои сообщения
    Вы не можете голосовать в опросах
    Вы не можете прикреплять файлы к сообщениям
    Вы можете скачивать файлы