Ссылка на приватное зеркало нашего сайта всего за 1$. Внимание количество ограничено!!!

2 сезон

iTunes

1 сезон

1

2 сезон

2 сезон

iTunes

1 сезон

RePack

30

Ultimate

ВАЖНО

ИГРА 18+

pack

RePack

MK11
pack

Забери бонус

RePack

jed

!!Акция!!

Alien_Rage

RePack

fifa19

RePack

Assassins Creed: Odyssey

RePack

NEED FOR SPEED™ PAYBACK

4 сезон

9 сезон

Бесстыжие 9 сезон

Все сериалы

все сериалы на PB.wtf

RePack

FAR CRY 5
  

Пятнадцать минут войны / 15 Minutes of War / L'Intervention (Фред Гривуа) [2019, Боевик, драма, военный, история, BD Remux 1080p] MVO [iTunes] pb.wtf

Пятнадцать минут войны через торрент pb.wtf

Размер: 23.14 GB | Добавлен: 1 год 4 мес. назад | Торрент скачан:21 раз
Скачать  

11-07-2019 18:22 Пятнадцать минут войны Скачать торрент  

Пятнадцать минут войны / 15 Minutes of War / L'Intervention
Год выпуска: 2019
Страна: Франция, Бельгия
Жанр: Боевик, драма, военный, история
Продолжительность: 01:38:24
Перевод: Профессиональный многоголосый | iTunes
Субтитры: французские

Режиссер: Фред Гривуа

rating

В ролях: Альбан Ленуар, Ольга Куриленко, Себастьян Лаланн, Давид Муржиа, Микаэль Абитбуль, Гийом Лаббе, Бен Кура, Венсан Перес, Жозиан Баласко, Кевин Лэйн

Описание: 1976 год. Сомалийские мятежники угоняют школьный автобус, пассажиры которого — 21 французский ученик и американский учитель, и увозят его к нейтральной зоне на границе между французской колонией и Сомали. Французский капитан Андре Жерваль получает задание возглавить команду снайперов для оперативного спасения заложников. Когда переговоры терпят неудачу, Жерваль и его ребята становятся единственными, кто может спасти их жизнь.

Качество: BD Remux 1080p
Формат: MKV

Видео: AVC/H.264, 1920x1080, 29,8 Мbps, 24 fps
Аудио#1: AC3, 6 ch, 384 Kbps - Русский
Аудио#2: DTS-HD MA, 6ch, 3456 Kbps - французский
скриншот  скриншот  скриншот  скриншот  

Общее
Уникальный идентификатор : 198567078293532986952586132799246715332 (0x9562A0D2135D9F145A53DF4C766E49C4)
Полное имя : L.Intervention_2019_BDRemux_W.mkv
Формат : Matroska
Версия формата : Version 4
Размер файла : 23,1 Гбайт
Продолжительность : 1 ч. 38 м.
Режим общего битрейта : Переменный
Общий поток : 33,7 Мбит/сек
Название фильма : L.Intervention_2019_BDRemux_W
Дата кодирования : UTC 2019-07-11 11:28:48
Программа кодирования : mkvmerge v23.0.0 ('The Bride Said No') 64-bit
Библиотека кодирования : libebml v1.3.6 + libmatroska v1.4.9

Видео
Идентификатор : 1
Формат : AVC
Формат/Информация : Advanced Video Codec
Профиль формата : High@L4.1
Настройки формата : CABAC / 4 Ref Frames
Параметр CABAC формата : Да
Параметр RefFrames формата : 4 кадра
Параметр GOP формата : M=3, N=12
Идентификатор кодека : V_MPEG4/ISO/AVC
Продолжительность : 1 ч. 38 м.
Вид битрейта : Переменный
Битрейт : 29,8 Мбит/сек
Максимальный битрейт : 37,0 Мбит/сек
Ширина : 1920 пикселей
Высота : 1080 пикселей
Соотношение сторон : 16:9
Режим частоты кадров : Постоянный
Частота кадров : 24,000 кадра/сек
Цветовое пространство : YUV
Субдискретизация насыщенности : 4:2:0
Битовая глубина : 8 бит
Тип развёртки : Прогрессивная
Бит/(Пиксели*Кадры) : 0.599
Размер потока : 20,5 Гбайт (89%)
Язык : French
Default : Да
Forced : Нет

Аудио #1
Идентификатор : 2
Формат : AC-3
Формат/Информация : Audio Coding 3
Коммерческое название : Dolby Digital
Идентификатор кодека : A_AC3
Продолжительность : 1 ч. 38 м.
Вид битрейта : Постоянный
Битрейт : 384 Кбит/сек
Каналы : 6 каналов
ChannelLayout : L R C LFE Ls Rs
Частота : 48,0 КГц
Частота кадров : 31,250 кадров/сек (1536 SPF)
Битовая глубина : 16 бит
Метод сжатия : С потерями
Размер потока : 270 Мбайт (1%)
Заголовок : MVO (iTunes)
Язык : Russian
ServiceKind : Complete Main
Default : Да
Forced : Нет

Аудио #2
Идентификатор : 3
Формат : DTS XLL
Формат/Информация : Digital Theater Systems
Коммерческое название : DTS-HD Master Audio
Идентификатор кодека : A_DTS
Продолжительность : 1 ч. 38 м.
Вид битрейта : Переменный
Битрейт : 3456 Кбит/сек
Каналы : 6 каналов
ChannelLayout : C L R Ls Rs LFE
Частота : 48,0 КГц
Частота кадров : 93,750 кадра/сек (512 SPF)
Битовая глубина : 24 бит
Метод сжатия : Без потерь
Размер потока : 2,38 Гбайт (10%)
Язык : French
Default : Нет
Forced : Нет

Текст #1
Идентификатор : 4
Формат : UTF-8
Идентификатор кодека : S_TEXT/UTF8
Идентификатор кодека/Информация : UTF-8 Plain Text
Продолжительность : 1 ч. 14 м.
Битрейт : 7 бит/сек
ElementCount : 136
Размер потока : 4,28 Кбайт (0%)
Заголовок : Forced
Язык : French
Default : Нет
Forced : Нет

Текст #2
Идентификатор : 5
Формат : UTF-8
Идентификатор кодека : S_TEXT/UTF8
Идентификатор кодека/Информация : UTF-8 Plain Text
Продолжительность : 1 ч. 38 м.
Битрейт : 38 бит/сек
ElementCount : 1092
Размер потока : 28,1 Кбайт (0%)
Язык : French
Default : Нет
Forced : Нет

Меню
00:00:00.000 : fr:(01)00:00:00:000
00:09:35.958 : fr:(02)00:09:35:958
00:15:56.875 : fr:(03)00:15:56:875
00:23:28.833 : fr:(04)00:23:28:833
00:33:02.916 : fr:(05)00:33:02:916
00:39:47.833 : fr:(06)00:39:47:833
00:48:04.000 : fr:(07)00:48:04:000
00:55:23.958 : fr:(08)00:55:23:958
01:04:22.416 : fr:(09)01:04:22:416
01:12:05.916 : fr:(10)01:12:05:916
01:19:38.791 : fr:(11)01:19:38:791
01:28:59.250 : fr:(12)01:28:59:250

pb.wtf



Скачать Пятнадцать минут войны через торрент http://d.radikal.ru/d11/1907/f0/fc1a5564a079.jpg Скачать фильм Пятнадцать минут войны через торрент бесплантно в хорошем качестве Описание: 1976 год. Сомалийские мятежники угоняют школьный автобус, пассажиры которого — 21 французский ученик и американский учитель, и ... 10 10 3
Торрент: Зарегистрирован [2019-07-11 18:22] · скачан: 21 раз
Статус: √ проверено
Размер: 23.14 GB
Как cкачать? Как скачать Пятнадцать минут войны через торрент | qTorrent

28-11-2019 20:33  

Отключить всю рекламу на сайте

    Дорогой пользователь! Огромная просьба, поблагодарите релизера, оцените раздачу и оставьте свои комментарий, если Вы скачали Пятнадцать минут войны через торрент бесплатно! Внесите свою лепту в развитие PiratBit!
    Комментировать посты могут только пользователи прошедшие не сложную регистрацию
    Показать сообщения:    

    Пятнадцать минут войны через торрент
    Скачать бесплатно Пятнадцать минут войны
    Пятнадцать минут войны скачать торрент
    Пятнадцать минут войны смотреть онлайн
    Cкачать фильм Пятнадцать минут войны бесплатно
    Пятнадцать минут войны скачать торрент в хорошем качестве
    Пятнадцать минут войны смотреть онлайн бесплатно в хорошем качестве


    Вы не можете начинать темы
    Вы не можете отвечать на сообщения
    Вы не можете редактировать свои сообщения
    Вы не можете удалять свои сообщения
    Вы не можете голосовать в опросах
    Вы не можете прикреплять файлы к сообщениям
    Вы можете скачивать файлы