новый адрес пиратбит piratbit
Мега распродажа FORZA HORIZON 4 ULTIMATE+ВСЕ DLC+ОНЛАЙН всего за 499р. 349 руб. (супер цена). Внимание количество ограничено!!!

iTunes

1+1

iTunes

мы

iTunes

1

iTunes

Чернобыль

iTunes

Ральф против интернета

Лицензия

ПШазам

Лицензия

Игра престолов

Лицензия

30
pack

ВАЖНО

!!Акция!!

Alien_RageХит недели

RePack

Resident Evil 21

ИГРА 18+

pack

RePack

Metro:Exodus

!!Акция!!

Alien_Rage

RePack

fifa19

RePack

Assassins Creed: Odyssey

RePack

NEED FOR SPEED™ PAYBACK

3 сезон

9 сезон

Бесстыжие 9 сезон

Все сериалы

все сериалы на PB.wtf

RePack

FAR CRY 5
Ребята, катастрофически не хватает 1900р. для оплаты серверов за Октябрь (всвязи с блокировками трафик упал в 3 раза), 1-2р., выручайте.
  

Волшебники / The Magicians / Сезон: 4 / Серии: 1-13 из 13 (Скотт Смит) [2019, фэнтези, драма, WEB-DL 720] MVO [LostFilm] pb.wtf

Волшебники через торрент pb.wtf

Размер: 17.53 GB | Добавлен: 4 мес. 5 д. назад | Торрент скачан:6 раз
Скачать  

12-07-2019 01:40 Волшебники Скачать торрент  

Волшебники / The Magicians
«Fantasy Gets Real»
Производство: США
Год выпуска: 2019
Жанр: фэнтези, драма
Продолжительность: ~ 00:58:00 серия
Премьера (мир): 16 декабря 2015
Перевод: Профессиональный (многоголосый закадровый) |LostFilm|
Субтитры: Rus, Eng
Оригинальная аудиодорожка: Английская

Режиссер: Крис Фишер, Джошуа Батлер, Джеймс Л. Конуэй

В ролях: Эсме Бьянко, Стелла Маив, Джейсон Ральф, Майкл Кэссиди, Саммер Бишил, Дэвид Колл, Рик Уорси, Темби Лок, Арджун Гупта, Хейл Эйплмен

Описание:
В один прекрасный момент несколько молодых людей удивительным образом оказываются в университете магии Брэйкбиллз, находящемся в Нью-Йорке. Парни делают необычное открытие, вносящее кардинальные перемены в их жизнь: как оказалось, умопомрачительный мир, о котором они так часто читали в детские годы, действительно есть. Не говоря уже о том, что, у всех у них есть собственные волшебные возможности. Но скоро обнаруживается, что жители данной скрытой от постороннего взгляда местности представляют собой гигантскую опасность для всего населения Земли.



Качество: WEB-DL 720p
Формат: MKV

Видео: AVC, 1280 x 720 (1.778), 23.976 fps, ~3286 kbps
Аудио Rus: AC-3, 48 kHz, 6 ch, 384 kbps |LostFilm|
Аудио Eng: AC-3, 48 kHz, 6 ch, 384 kbps |Original|
Общее
Уникальный идентификатор : 45979046255803031498956265443759459766 (0x22973E00CF0F252B32EE31FCF72B8DB6)
Полное имя : E:\_Сериалы\_Сериалы\Волшебники\The.Magicians.s04.720p.WEB-DL.LostFilm\The.Magicians.s04e01.720p.WEB-DL.LostFilm.mkv
Формат : Matroska
Версия формата : Version 4
Размер файла : 1,44 Гбайт
Продолжительность : 45 м. 14 с.
Общий поток : 4568 Кбит/сек
Дата кодирования : UTC 2019-05-25 09:38:30
Программа кодирования : mkvmerge v34.0.0 ('Sight and Seen') 64-bit
Библиотека кодирования : libebml v1.3.7 + libmatroska v1.5.0

Видео
Идентификатор : 1
Формат : AVC
Формат/Информация : Advanced Video Codec
Профиль формата : High@L3.1
Настройки формата : CABAC / 4 Ref Frames
Параметр CABAC формата : Да
Параметр RefFrames формата : 4 кадра
Идентификатор кодека : V_MPEG4/ISO/AVC
Продолжительность : 45 м. 14 с.
Вид битрейта : Постоянный
Битрейт : 3286 Кбит/сек
Номинальный битрейт : 6000 Кбит/сек
Ширина : 1280 пикселей
Высота : 720 пикселей
Соотношение сторон : 16:9
Режим частоты кадров : Постоянный
Частота кадров : 23,976 (24000/1001) кадра/сек
Цветовое пространство : YUV
Субдискретизация насыщенности : 4:2:0
Битовая глубина : 8 бит
Тип развёртки : Прогрессивная
Бит/(Пиксели*Кадры) : 0.149
Размер потока : 1,04 Гбайт (72%)
Default : Да
Forced : Нет
Цветовой диапазон : Limited
Основные цвета : BT.709
Характеристики трансфера : BT.709
Коэффициенты матрицы : BT.709

Аудио #1
Идентификатор : 2
Формат : AC-3
Формат/Информация : Audio Coding 3
Коммерческое название : Dolby Digital
Идентификатор кодека : A_AC3
Продолжительность : 45 м. 14 с.
Вид битрейта : Постоянный
Битрейт : 384 Кбит/сек
Каналы : 6 каналов
Channel layout : L R C LFE Ls Rs
Частота : 48,0 КГц
Частота кадров : 31,250 кадров/сек (1536 SPF)
Битовая глубина : 16 бит
Метод сжатия : С потерями
Размер потока : 207 Мбайт (14%)
Язык : Russian
ServiceKind/String : Complete Main
Default : Да
Forced : Нет

Аудио #2
Идентификатор : 3
Формат : AC-3
Формат/Информация : Enhanced AC-3
Коммерческое название : Dolby Digital Plus
Идентификатор кодека : AC3
Продолжительность : 45 м. 14 с.
Вид битрейта : Постоянный
Битрейт : 384 Кбит/сек
Каналы : 6 каналов
Channel layout : L R C LFE Ls Rs
Частота : 48,0 КГц
Частота кадров : 31,250 кадров/сек (1536 SPF)
Метод сжатия : С потерями
Размер потока : 207 Мбайт (14%)
Язык : English
ServiceKind/String : Complete Main
Default : Нет
Forced : Нет

Текст #1
Идентификатор : 4
Формат : UTF-8
Идентификатор кодека : S_TEXT/UTF8
Идентификатор кодека/Информация : UTF-8 Plain Text
Продолжительность : 27 м. 43 с.
Битрейт : 2 бит/сек
ElementCount : 12
Размер потока : 498 байт (0%)
Заголовок : Forced
Язык : Russian
Default : Да
Forced : Да

Текст #2
Идентификатор : 5
Формат : UTF-8
Идентификатор кодека : S_TEXT/UTF8
Идентификатор кодека/Информация : UTF-8 Plain Text
Продолжительность : 44 м. 34 с.
Битрейт : 107 бит/сек
ElementCount : 652
Размер потока : 35,1 Кбайт (0%)
Язык : Russian
Default : Нет
Forced : Нет

Текст #3
Идентификатор : 6
Формат : UTF-8
Идентификатор кодека : S_TEXT/UTF8
Идентификатор кодека/Информация : UTF-8 Plain Text
Продолжительность : 44 м. 47 с.
Битрейт : 75 бит/сек
ElementCount : 1010
Размер потока : 24,6 Кбайт (0%)
Заголовок : SDH
Язык : English
Default : Нет
Forced : Нет
Раздача ведётся путём добавления новых серий; при каждом добавлении создаётся новый торрент.
Чтобы начать докачку новой серии, пользователям необходимо сделать следующее:
1. остановить скачивание,
2. удалить старый торрент у себя из клиента (старые серии удалять не надо),
3. скачать новый торрент и запустить его у себя в клиенте вместо старого, при этом указать клиенту путь в старую папку, куда и должно происходить скачивание новых серий.

Ваш клиент при этом должен произвести хеширование (проверку) старой папки (если не производит сам - помогите ему сделать это), и будет докачивать только те серии которых у вас ещё нет. Старые серии при этом не удаляются, а продолжают раздаваться!

Eсли вы уже удалили старые серии, то предотвратить повторную закачку старых серий можно, отжав галочку в соответствующих местах при запуске нового торрента. По возможности, желательно не удалять старые серии как можно дольше, чтобы релизёр не столько продолжал раздавать старые серии, а смог сконцентрироваться на новых.

Совет для тех, кто не хочет ждать перехеширования:
Создайте ещё одну папку рядом с папкой сериала (рядом, а не в ней!!!). Каждую новую серию после удачной загрузки копируйте в новую папку так чтобы ваша основная папка всегда была пуста. Когда ваш новый торрент предложит вам закачать все файлы, выберете только последнюю. Для сидирования же укажите адрес новой папки.

Как закачать отдельный файл из торрента или докачать ранее пропущенные файлы торрента!
1. Открыть торрент
2. Снять галки с тех файлов торрента, которые мы не хотим закачивать. Оставляем только на нужных нам файлах (файле).
3. Нажать О.К.

В клиенте utorrent

Инструкция

1) Открыть торрент


2) Снять галки с тех файлов торрента, которые мы не хотим закачивать:

* либо вручную, снимая с каждого файла галку( скрин №1)
* либо, нажав кнопку "Снять метки (Select None)", сняв сразу со всех файлов(скрин №2)
№1

№2

Оставляем только на нужных нам файлах (файле).

3)Нажать О.К
Приятного просмотра!!!pb.wtf



Скачать Волшебники через торрент https://i109.fastpic.ru/big/2019/0207/83/a866685b00915913dc9804f72cc3ca83.png Скачать фильм Волшебники через торрент бесплантно в хорошем качестве Описание:В один прекрасный момент несколько молодых людей удивительным образом оказываются в университете магии Брэйкбиллз, находящемся в ... 10 10 3
Торрент: Зарегистрирован [2019-07-12 01:40] · скачан: 6 раз
Статус: √ проверено
Размер: 17.53 GB
Как cкачать? Как скачать Волшебники через торрент | qTorrent

% Раздел Тема Автор DL S | L
Зарубежные сериалы [ 30.4 GB ] Волшебники / The Magicians / Сезон 4 / Серии 1-13 из 13 [2019 WEB-DLRip 1080p] MVO [LostFilm] Vladislav@Pskov Скачать
1 | 0
Зарубежные сериалы [ 31.57 GB ] Волшебники / The Magicians / Сезон: 4 / Серии: 1-13 из 13 [2019 WEBRip 1080p] MVO [TVShows] bober100 Скачать
1 | 0
Зарубежные сериалы [ 15.32 GB ] Волшебники / The Magicians / Сезон: 4 / Серии: 1-13 из 13 [2019 WEB-DL 720p] MVO [Jaskier] bober100 Скачать
1 | 0
Зарубежные сериалы [ 7.01 GB ] Волшебники / The Magicians / Сезон: 4 / Серии: 1-13 из 13 [2019 WEB-DLRip] MVO [Jaskier] bober100 Скачать
1 | 0
Зарубежные сериалы [ 28.83 GB ] Волшебники / The Magicians / Сезон: 4 / Серии: 1-13 из 13 [2019 WEB-DL 1080p] MVO [Jaskier] bober100 Скачать
1 | 0
Зарубежные сериалы [ 7.19 GB ] Волшебники / The Magicians / Сезон: 4 / Серии: 1-13 из 13 [2019 WEB-DLRip] MVO [LostFilm] bober100 Скачать
2 | 0


>> Регистрируемся здесь <<






Отзывы и комментарии о схеме читаем и пишем здесь: ---> Отзывы и комментарии о схеме

Новые благодарочки в телеграм довольных пользователей:
скриншот   скриншот   скриншот   скриншот   скриншот
    Дорогой пользователь! Огромная просьба, поблагодарите релизера, оцените раздачу и оставьте свои комментарий, если Вы скачали Волшебники через торрент бесплатно! Внесите свою лепту в развитие PiratBit!
    Комментировать посты могут только пользователи прошедшие не сложную регистрацию
    Показать сообщения:    

    Волшебники через торрент
    Скачать бесплатно Волшебники
    Волшебники скачать торрент
    Волшебники смотреть онлайн
    Cкачать фильм Волшебники бесплатно
    Волшебники скачать торрент в хорошем качестве
    Волшебники смотреть онлайн бесплатно в хорошем качестве


    Вы не можете начинать темы
    Вы не можете отвечать на сообщения
    Вы не можете редактировать свои сообщения
    Вы не можете удалять свои сообщения
    Вы не можете голосовать в опросах
    Вы не можете прикреплять файлы к сообщениям
    Вы можете скачивать файлы