новый адрес
Мега распродажа FORZA HORIZON 4 ULTIMATE+ВСЕ DLC+ОНЛАЙН всего за 499р. 349 руб. (супер цена). Внимание количество ограничено!!!

iTunes

1+1

iTunes

мы

iTunes

1

iTunes

Чернобыль

iTunes

Ральф против интернета

Лицензия

ПШазам

Лицензия

Оно 2

Лицензия

30
pack

ВАЖНО

!!Акция!!

Alien_RageХит недели

RePack

Resident Evil 21

ИГРА 18+

pack

RePack

jed

!!Акция!!

Alien_Rage

RePack

fifa19

RePack

Assassins Creed: Odyssey

RePack

NEED FOR SPEED™ PAYBACK

3 сезон

9 сезон

Бесстыжие 9 сезон

Все сериалы

все сериалы на PB.wtf

RePack

FAR CRY 5
Ребята, катастрофически не хватает 1900р. для оплаты серверов за Октябрь (всвязи с блокировками трафик упал в 3 раза), 1-2р., выручайте.
  

Как я стал… (Павел Мирзоев) [2018, драма, WEB-DLRip] [iTunes] pb.wtf

Как я стал… через торрент pb.wtf

Раздают: 1 [ 0 KB/s ]
Размер: 1.46 GB | Добавлен: 4 мес. 9 д. назад | Торрент скачан:126 раз
Скачать  

12-07-2019 04:11 Как я стал… Скачать торрент  

Как я стал… Год выпуска: 2018
Страна: Россия
Жанр: драма
Продолжительность: 01:41:04
Перевод: Не требуется| iTunes
Субтитры: отсутствуют

Режиссер: Павел Мирзоев

rating


В ролях: Павел Табаков, Ольга Лерман, Роза Хаируллина, Сергей Пускепалис, Софья Синицына, Денис Власенко, Анастасия Щеглова, Полина Степанова

Описание: Становление личности. Взросление. Первая любовь. Первое предательство. Первое столкновение с реальной жизнью. Москва. Наши дни...

Качество: WEB-DLRip
Формат: AVI

Видео: 704x384 (1.85:1), 24.000 fps, XviD build 73 ~1 862 kbps avg
Аудио: 48.0 kHz, AC3 Dolby Digital, 2/0 (L,R) ch, ~192 kbps
скриншот  скриншот  скриншот  

General
Формат : AVI
Формат/Информация : Audio Video Interleave
Размер файла : 1,46 Гбайт
Продолжительность : 1 ч. 41 м.
Общий поток : 2063 Кбит/сек
Название фильма : Как я стал…_2018_WEB-DLRip
Программа кодирования : VirtualDubMod 1.5.10.3 | (build 2550/release)
Авторское право : порошков

Видео
Идентификатор : 0
Формат : MPEG-4 Visual
Профиль формата : Advanced Simple@L5
Настройки формата : BVOP1 / Custom Matrix
Параметр BVOP формата : 1
Параметр QPel формата : Нет
Параметр GMC формата : Без точки перехода
Параметр матрицы формата : Выборочная
Идентификатор кодека : XVID
Идентификатор кодека/Подсказка : XviD
Продолжительность : 1 ч. 41 м.
Битрейт : 1862 Кбит/сек
Ширина : 704 пикселя
Высота : 384 пикселя
Соотношение сторон : 1,85:1
Частота кадров : 24,000 кадра/сек
Цветовое пространство : YUV
Субдискретизация насыщенности : 4:2:0
Битовая глубина : 8 бит
Тип развёртки : Прогрессивная
Метод сжатия : С потерями
Бит/(Пиксели*Кадры) : 0.287
Размер потока : 1,31 Гбайт (90%)
Библиотека кодирования : XviD 73

Аудио
Идентификатор : 1
Формат : AC-3
Формат/Информация : Audio Coding 3
Коммерческое название : Dolby Digital
Идентификатор кодека : 2000
Продолжительность : 1 ч. 41 м.
Вид битрейта : Постоянный
Битрейт : 192 Кбит/сек
Каналы : 2 канала
ChannelLayout : L R
Частота : 48,0 КГц
Частота кадров : 31,250 кадров/сек (1536 SPF)
Битовая глубина : 16 бит
Метод сжатия : С потерями
Размер потока : 139 Мбайт (9%)
Выравнивание : Разделение по промежуткам
Продолжительность промежутка : 42 мс. (1,00 видеокадр)
Время предзагрузки промежутка : 500 мс.

pb.wtf



Скачать Как я стал… через торрент http://a.radikal.ru/a39/1907/a3/771674c52427.jpg Скачать фильм Как я стал… через торрент бесплантно в хорошем качестве Описание: Становление личности. Взросление. Первая любовь. Первое предательство. Первое столкновение с реальной жизнью. Москва. Наши ... 10 10 11
Торрент: Зарегистрирован [2019-07-12 04:11] · скачан: 126 раз
Статус: √ проверено
Размер: 1.46 GB
Как cкачать? Как скачать Как я стал… через торрент | qTorrent

% Раздел Тема Автор DL S | L
Наши новые фильмы 2018-2019 [ 1.46 GB ] Как я стал русским [2019 WEB-DLRip] bober100 Скачать
5 | 0
Наши фильмы (HD, WEB-DL 720p, 1080p) [ 3.26 GB ] Как я стал русским [2019 WEB-DL 1080p] bober100 Скачать
5 | 0
Наши новые фильмы 2018-2019 [ 747 MB ] Как я стал русским [2019 WEB-DLRip] bober100 Скачать
2 | 0
Наши новые фильмы 2018-2019 [ 1.52 GB ] Как я стал русским [2018 WEB-DLRip-AVC] - ExKinoRay Enigma2010 Скачать
30 | 0
Наши сериалы [ 22.71 GB ] Как я стал русским / Сезон: 1 / Серии: 1-20 из 20 [2015 WEB-DL 1080p] bober100 Скачать
1 | 0
Фантастика [ 623 MB ] Игорь Осипов - Боевой маг 1. Как я стал боевым магом [Александр Чайцын 2018 96 kbps MP3] bober100 Скачать
1 | 0
Наши сериалы [ 6.81 GB ] Как я стал русским / Сезон 1 / Серии 1-20 из 20 [2015 SATRip] bober100 Скачать
1 | 0


>> Регистрируемся здесь <<






Отзывы и комментарии о схеме читаем и пишем здесь: ---> Отзывы и комментарии о схеме

Новые благодарочки в телеграм довольных пользователей:
скриншот   скриншот   скриншот   скриншот   скриншот
    Дорогой пользователь! Огромная просьба, поблагодарите релизера, оцените раздачу и оставьте свои комментарий, если Вы скачали Как я стал… через торрент бесплатно! Внесите свою лепту в развитие PiratBit!
    Комментировать посты могут только пользователи прошедшие не сложную регистрацию
    Показать сообщения:    

    Как я стал… через торрент
    Скачать бесплатно Как я стал…
    Как я стал… скачать торрент
    Как я стал… смотреть онлайн
    Cкачать фильм Как я стал… бесплатно
    Как я стал… скачать торрент в хорошем качестве
    Как я стал… смотреть онлайн бесплатно в хорошем качестве


    Вы не можете начинать темы
    Вы не можете отвечать на сообщения
    Вы не можете редактировать свои сообщения
    Вы не можете удалять свои сообщения
    Вы не можете голосовать в опросах
    Вы не можете прикреплять файлы к сообщениям
    Вы можете скачивать файлы