Ссылка на приватное зеркало всего за 1$. Внимание количество ограничено!!!

iTunes

iTunes

iTunes

1

iTunes

iTunes

iTunes

iTunes

iTunes

30
pack

$ от Little Big

ВАЖНО

!!Акция!!

Alien_RageХит недели

RePack

Resident Evil 21

ИГРА 18+

pack

RePack

jed

!!Акция!!

Alien_Rage

RePack

fifa19

RePack

Assassins Creed: Odyssey

RePack

NEED FOR SPEED™ PAYBACK

4 сезон

9 сезон

Бесстыжие 9 сезон

Все сериалы

все сериалы на PB.wtf

RePack

FAR CRY 5
  

Одиссея Петра (Алексей Кузмин-Тарасов, Анна Колчина) [2018, драма, семейный, WEB-DLRip] [iTunes] pb.wtf

Одиссея Петра через торрент pb.wtf

Размер: 1.46 GB | Добавлен: 10 мес. назад | Торрент скачан:38 раз
Скачать  

12-07-2019 04:29 Одиссея Петра Скачать торрент  

Одиссея Петра Год выпуска: 2018
Страна: Россия
Жанр: драма, семейный
Продолжительность: 01:17:24
Перевод: Не требуется | iTunes
Субтитры: отдельным файлом / русские (forced)

Режиссер: Алексей Кузмин-Тарасов, Анна Колчина



В ролях: Дмитрий Габриелян, Светлана Немоляева, Мария Шашлова, Алексей Юдников, Наталья Курепова, Даниил Каменцев

Описание: 12-летний мальчик Петя каждое лето проводит на подмосковной даче со своей бабушкой. Но идиллическое лето 1996 года внезапно заканчивается, когда его родители решают эмигрировать в Германию. Не желая приспосабливаться к новой реальности, Петя отправляется в фантазийное путешествие домой...

Качество: WEB-DLRip
Формат: AVI

Видео: 720x304 (2.35:1), 24.000 fps, XviD build 73 ~2 299 kbps avg
Аудио: 48.0 kHz, AC3 Dolby Digital, 3/2 (L,C,R,l,r) + LFE ch, ~384 kbps
скриншот  скриншот  скриншот  

General
Формат : AVI
Формат/Информация : Audio Video Interleave
Размер файла : 1,46 Гбайт
Продолжительность : 1 ч. 17 м.
Общий поток : 2693 Кбит/сек
Название фильма : Одиссея Петра_2018_WEB-DLRip
Программа кодирования : VirtualDubMod 1.5.10.3 | (build 2550/release)
Авторское право : порошков

Видео
Идентификатор : 0
Формат : MPEG-4 Visual
Профиль формата : Advanced Simple@L5
Настройки формата : BVOP1 / Custom Matrix
Параметр BVOP формата : 1
Параметр QPel формата : Нет
Параметр GMC формата : Без точки перехода
Параметр матрицы формата : Выборочная
Идентификатор кодека : XVID
Идентификатор кодека/Подсказка : XviD
Продолжительность : 1 ч. 17 м.
Битрейт : 2299 Кбит/сек
Ширина : 720 пикселей
Высота : 304 пикселя
Соотношение сторон : 2,35:1
Частота кадров : 24,000 кадра/сек
Цветовое пространство : YUV
Субдискретизация насыщенности : 4:2:0
Битовая глубина : 8 бит
Тип развёртки : Прогрессивная
Метод сжатия : С потерями
Бит/(Пиксели*Кадры) : 0.438
Размер потока : 1,24 Гбайт (85%)
Библиотека кодирования : XviD 73

Аудио
Идентификатор : 1
Формат : AC-3
Формат/Информация : Audio Coding 3
Коммерческое название : Dolby Digital
Идентификатор кодека : 2000
Продолжительность : 1 ч. 17 м.
Вид битрейта : Постоянный
Битрейт : 384 Кбит/сек
Каналы : 6 каналов
ChannelLayout : L R C LFE Ls Rs
Частота : 48,0 КГц
Частота кадров : 31,250 кадров/сек (1536 SPF)
Битовая глубина : 16 бит
Метод сжатия : С потерями
Размер потока : 213 Мбайт (14%)
Выравнивание : Разделение по промежуткам
Продолжительность промежутка : 42 мс. (1,00 видеокадр)
Время предзагрузки промежутка : 500 мс.

pb.wtf



Скачать Одиссея Петра через торрент http://c.radikal.ru/c27/1907/45/9cef5be2ffc2.jpg Скачать фильм Одиссея Петра через торрент бесплантно в хорошем качестве Описание: 12-летний мальчик Петя каждое лето проводит на подмосковной даче со своей бабушкой. Но идиллическое лето 1996 года внезапно ... 10 10 7
Торрент: Зарегистрирован [2019-07-12 04:29] · скачан: 38 раз
Статус: √ проверено
Размер: 1.46 GB
Как cкачать? Как скачать Одиссея Петра через торрент | qTorrent

% Раздел Тема Автор DL S | L
Наши новые фильмы 2018-2019 [ 1.46 GB ] Одиссея Петра [2018 WEB-DLRip-AVC] bober100 Скачать
1 | 0

28-11-2019 20:33  

Отключить всю рекламу на сайте

    Дорогой пользователь! Огромная просьба, поблагодарите релизера, оцените раздачу и оставьте свои комментарий, если Вы скачали Одиссея Петра через торрент бесплатно! Внесите свою лепту в развитие PiratBit!
    Комментировать посты могут только пользователи прошедшие не сложную регистрацию
    Показать сообщения:    

    Одиссея Петра через торрент
    Скачать бесплатно Одиссея Петра
    Одиссея Петра скачать торрент
    Одиссея Петра смотреть онлайн
    Cкачать фильм Одиссея Петра бесплатно
    Одиссея Петра скачать торрент в хорошем качестве
    Одиссея Петра смотреть онлайн бесплатно в хорошем качестве


    Вы не можете начинать темы
    Вы не можете отвечать на сообщения
    Вы не можете редактировать свои сообщения
    Вы не можете удалять свои сообщения
    Вы не можете голосовать в опросах
    Вы не можете прикреплять файлы к сообщениям
    Вы можете скачивать файлы