новый адрес
Мега распродажа FORZA HORIZON 4 ULTIMATE+ВСЕ DLC+ОНЛАЙН всего за 499р. 349 руб. (супер цена). Внимание количество ограничено!!!

iTunes

1+1

iTunes

мы

iTunes

1

iTunes

Чернобыль

iTunes

Ральф против интернета

Лицензия

ПШазам

Лицензия

Игра престолов

Лицензия

30
pack

ВАЖНО

!!Акция!!

Alien_RageХит недели

RePack

Resident Evil 21

ИГРА 18+

pack

RePack

Metro:Exodus

!!Акция!!

Alien_Rage

RePack

fifa19

RePack

Assassins Creed: Odyssey

RePack

NEED FOR SPEED™ PAYBACK

3 сезон

9 сезон

Бесстыжие 9 сезон

Все сериалы

все сериалы на PB.wtf

RePack

FAR CRY 5
Ребята, катастрофически не хватает 1900р. для оплаты серверов за Октябрь (всвязи с блокировками трафик упал в 3 раза), 1-2р., выручайте.
  

Одиссея Петра (Алексей Кузмин-Тарасов, Анна Колчина) [2018, драма, семейный, WEB-DLRip-AVC] [iTunes] pb.wtf

Одиссея Петра через торрент pb.wtf

Размер: 1.46 GB | Добавлен: 4 мес. 8 д. назад | Торрент скачан:34 раза
Скачать  

12-07-2019 04:36 Одиссея Петра Скачать торрент  

Одиссея Петра Год выпуска: 2018
Страна: Россия
Жанр: драма, семейный
Продолжительность: 01:17:24
Перевод: Не требуется | iTunes
Субтитры: русские (forced)

Режиссер: Алексей Кузмин-Тарасов, Анна Колчина



В ролях: Дмитрий Габриелян, Светлана Немоляева, Мария Шашлова, Алексей Юдников, Наталья Курепова, Даниил Каменцев

Описание: 12-летний мальчик Петя каждое лето проводит на подмосковной даче со своей бабушкой. Но идиллическое лето 1996 года внезапно заканчивается, когда его родители решают эмигрировать в Германию. Не желая приспосабливаться к новой реальности, Петя отправляется в фантазийное путешествие домой...

Качество: WEB-DLRip-AVC
Формат: MKV

Видео: 1152x484 (2.40:1), 24.000 fps, MPEG-4 AVC ~2 319 kbps avg
Аудио: 48.0 kHz, AC3 Dolby Digital, 3/2 (L,C,R,l,r) + LFE ch, ~384 kbps
скриншот  скриншот  скриншот  

General
Unique ID : 200977245563052018360749247246419233291 (0x9732CF3DD1B1A1C78F090E03DBA20A0B)
Complete name : Одиссея Петра.2018.mkv
Format : Matroska
Format version : Version 2
File size : 1.46 GiB
Duration : 1 h 17 min
Overall bit rate : 2 703 kb/s
Encoded date : UTC 2019-06-28 19:55:23
Writing application : mkvmerge v7.8.0 ('River Man') 32bit built on Mar 27 2015 16:18:02
Writing library : libebml v1.3.1 + libmatroska v1.4.2

Video
ID : 1
Format : AVC
Format/Info : Advanced Video Codec
Format profile : High@L4.1
Format settings : CABAC / 14 Ref Frames
Format settings, CABAC : Yes
Format settings, ReFrames : 14 frames
Codec ID : V_MPEG4/ISO/AVC
Duration : 1 h 17 min
Bit rate : 2 319 kb/s
Width : 1 152 pixels
Height : 484 pixels
Display aspect ratio : 2.40:1
Frame rate mode : Constant
Frame rate : 24.000 FPS
Color space : YUV
Chroma subsampling : 4:2:0
Bit depth : 8 bits
Scan type : Progressive
Bits/(Pixel*Frame) : 0.173
Stream size : 1.22 GiB (84%)
Title : Одиссея Петра.2018
Writing library : x264 core 152 r2851kMod ba24899
Encoding settings : cabac=1 / ref=14 / deblock=1:-2:-2 / analyse=0x3:0x133 / me=umh / subme=10 / psy=1 / fade_compensate=0.00 / psy_rd=1.06:0.10 / mixed_ref=1 / me_range=32 / chroma_me=1 / trellis=2 / 8x8dct=1 / cqm=0 / deadzone=21,11 / fast_pskip=0 / chroma_qp_offset=-3 / threads=12 / lookahead_threads=3 / sliced_threads=0 / nr=0 / decimate=0 / interlaced=0 / bluray_compat=0 / constrained_intra=0 / bframes=16 / b_pyramid=2 / b_adapt=2 / b_bias=0 / direct=3 / weightb=1 / open_gop=0 / weightp=2 / keyint=240 / keyint_min=24 / scenecut=40 / intra_refresh=0 / rc_lookahead=60 / rc=2pass / mbtree=0 / bitrate=2319 / ratetol=1.0 / qcomp=0.60 / qpmin=0 / qpmax=69 / qpstep=4 / cplxblur=20.0 / qblur=0.5 / vbv_maxrate=62500 / vbv_bufsize=78125 / nal_hrd=none / filler=0 / ip_ratio=1.35 / pb_ratio=1.30 / aq=3:0.90 / zones=105446,111455,q=30
Language : Russian
Default : Yes
Forced : No
Color range : Limited
Color primaries : BT.709
Transfer characteristics : BT.709
Matrix coefficients : BT.709

Audio
ID : 2
Format : AC-3
Format/Info : Audio Coding 3
Codec ID : A_AC3
Duration : 1 h 17 min
Bit rate mode : Constant
Bit rate : 384 kb/s
Channel(s) : 6 channels
Channel positions : Front: L C R, Side: L R, LFE
Sampling rate : 48.0 kHz
Frame rate : 31.250 FPS (1536 SPF)
Bit depth : 16 bits
Compression mode : Lossy
Stream size : 213 MiB (14%)
Title : iTunes
Language : Russian
Service kind : Complete Main
Default : Yes
Forced : No

Text
ID : 3
Format : UTF-8
Codec ID : S_TEXT/UTF8
Codec ID/Info : UTF-8 Plain Text
Title : Субтитры форсированные (на иностранную речь)
Language : Russian
Default : Yes
Forced : Yes

pb.wtf



Скачать Одиссея Петра через торрент http://c.radikal.ru/c27/1907/45/9cef5be2ffc2.jpg Скачать фильм Одиссея Петра через торрент бесплантно в хорошем качестве Описание: 12-летний мальчик Петя каждое лето проводит на подмосковной даче со своей бабушкой. Но идиллическое лето 1996 года внезапно ... 8.2 10 6
Торрент: Зарегистрирован [2019-07-12 04:36] · скачан: 34 раз
Статус: √ проверено
Размер: 1.46 GB
Как cкачать? Как скачать Одиссея Петра через торрент | qTorrent

% Раздел Тема Автор DL S | L
Наши новые фильмы 2018-2019 [ 1.46 GB ] Одиссея Петра [2018 WEB-DLRip] bober100 Скачать
1 | 0


>> Регистрируемся здесь <<






Отзывы и комментарии о схеме читаем и пишем здесь: ---> Отзывы и комментарии о схеме

Новые благодарочки в телеграм довольных пользователей:
скриншот   скриншот   скриншот   скриншот   скриншот

12-07-2019 05:13 Одиссея Петра Скачать торрент  

Судя по описанию ,та еще дичь скрепанутая! )))))pb.wtf



    Дорогой пользователь! Огромная просьба, поблагодарите релизера, оцените раздачу и оставьте свои комментарий, если Вы скачали Одиссея Петра через торрент бесплатно! Внесите свою лепту в развитие PiratBit!
    Комментировать посты могут только пользователи прошедшие не сложную регистрацию
    Показать сообщения:    

    Одиссея Петра через торрент
    Скачать бесплатно Одиссея Петра
    Одиссея Петра скачать торрент
    Одиссея Петра смотреть онлайн
    Cкачать фильм Одиссея Петра бесплатно
    Одиссея Петра скачать торрент в хорошем качестве
    Одиссея Петра смотреть онлайн бесплатно в хорошем качестве


    Вы не можете начинать темы
    Вы не можете отвечать на сообщения
    Вы не можете редактировать свои сообщения
    Вы не можете удалять свои сообщения
    Вы не можете голосовать в опросах
    Вы не можете прикреплять файлы к сообщениям
    Вы можете скачивать файлы