Ссылка на приватное зеркало нашего сайта всего за 1$. Внимание количество ограничено!!!

2 сезон

iTunes

1 сезон

1

2 сезон

2 сезон

iTunes

1 сезон

RePack

30

Новинка

ВАЖНО

ИГРА 18+

pack

RePack

MK11
pack

Забери бонус

RePack

jed

!!Акция!!

Alien_Rage

RePack

fifa19

RePack

Assassins Creed: Odyssey

RePack

NEED FOR SPEED™ PAYBACK

4 сезон

9 сезон

Бесстыжие 9 сезон

Все сериалы

все сериалы на PB.wtf

RePack

FAR CRY 5
  

Куртизанки / Harlots / Сезон: 2 / Серии: 1-8 из 8 (Коки Гидройч, Джилл Робертсон, Чина Му-Ен) [2018, Драма, WEB-DLRip] [MVO] (TVShows) pb.wtf

Куртизанки через торрент pb.wtf

Раздают: 1 [ 0.8 KB/s ]
Размер: 6.21 GB | Добавлен: 1 год 4 мес. назад | Торрент скачан:51 раз
Скачать  

12-07-2019 08:53 Куртизанки Скачать торрент  

Куртизанки | Harlots
Год выпуска: 2018
Страна: Великобритания, США
Жанр: драма
Продолжительность: ~ 00:50:00

Перевод: Профессиональный (многоголосый закадровый) TVShows

Режиссёр: Коки Гидройч, Джилл Робертсон, Чина Му-Ен

В ролях: Саманта Мортон, Лесли Мэнвилл, Джессика Браун-Финдли, Дороти Эткинсон, Кейт Флитвуд, Элуиз Смит, Холли Демпси, Джордон Стивенс и др.
Описание: История, события которой разворачиваются в восемнадцатом столетии, повествует о Маргарет Уэллс (Саманта Мортон) — владелице борделя, отдающей все силы и заработанные средства на то, чтобы взрастить своих дочерей.




Качество: WEB-DLRip
Формат: AVI
Видео: XVID, 720x400, 25.000 fps, 2000 kbps avg, 0.278 bit/pixel
Аудио Rus: AC3, 48.0 KHz, 2 channels, 192 kbps
Субтитры: нет
General
Complete name : G:\Куртизанки (Сезон 2) TVShows\Harlots.S02E01.WEB-DLRip.RGzsRutracker.Celta88.avi
Format : AVI
Format/Info : Audio Video Interleave
File size : 794 MiB
Duration : 50 min 27 s
Overall bit rate : 2 202 kb/s
Writing application : VirtualDubMod 1.5.10.3 | www.virtualdub-fr.org || (build 2550/release)
Writing library : VirtualDubMod build 2550/release

Video
ID : 0
Format : MPEG-4 Visual
Format profile : Advanced Simple@L5
Format settings, BVOP : 1
Format settings, QPel : No
Format settings, GMC : No warppoints
Format settings, Matrix : Custom
Codec ID : XVID
Codec ID/Hint : XviD
Duration : 50 min 27 s
Bit rate : 2 000 kb/s
Width : 720 pixels
Height : 400 pixels
Display aspect ratio : 16:9
Frame rate : 25.000 FPS
Color space : YUV
Chroma subsampling : 4:2:0
Bit depth : 8 bits
Scan type : Progressive
Compression mode : Lossy
Bits/(Pixel*Frame) : 0.278
Stream size : 722 MiB (91%)
Writing library : XviD 73

Audio
ID : 1
Format : AC-3
Format/Info : Audio Coding 3
Mode extension : CM (complete main)
Format settings, Endianness : Big
Codec ID : 2000
Duration : 50 min 27 s
Bit rate mode : Constant
Bit rate : 192 kb/s
Channel(s) : 2 channels
Channel positions : Front: L R
Sampling rate : 48.0 kHz
Frame rate : 31.250 FPS (1536 spf)
Bit depth : 16 bits
Compression mode : Lossy
Stream size : 69.3 MiB (9%)
Alignment : Split accross interleaves
Interleave, duration : 40 ms (1.00 video frame)
Interleave, preload duratio : 500 ms
скриншот  скриншот  скриншот  
pb.wtf



Скачать Куртизанки через торрент https://i109.fastpic.ru/big/2019/0323/a8/a657e4c192d8a8b15aeb3ec6b1c436a8.png Скачать фильм Куртизанки через торрент бесплантно в хорошем качестве Описание: История, события которой разворачиваются в восемнадцатом столетии, повествует о Маргарет Уэллс (Саманта Мортон) — владелице ... 10 10 2
Торрент: Зарегистрирован [2019-07-12 08:53] · скачан: 51 раз
Статус: √ проверено
Размер: 6.21 GB
Как cкачать? Как скачать Куртизанки через торрент | qTorrent

% Раздел Тема Автор DL S | L
Зарубежные сериалы [ 22.39 GB ] Куртизанки / Harlots / Сезон: 2 / Серии: 1-8 из 8 [2018 WEBRip 1080p] [MVO] killermax2013 Скачать
1 | 0
Зарубежные сериалы [ 16.81 GB ] Куртизанки / Harlots / Сезон: 2 / Серии: 1-8 из 8 [2018 WEB-DL 1080p] [MVO] killermax2013 Скачать
1 | 0
Зарубежные сериалы [ 5 GB ] Куртизанки / Harlots / Сезон: 2 / Серии: 1-8 из 8 [2018 WEB-DLRip] [MVO] killermax2013 Скачать
1 | 0
Зарубежные сериалы [ 7.29 GB ] Куртизанки / Harlots / Сезон: 2 / Серии: 1-8 из 8 [2018 WEB-DL 720p] [MVO] killermax2013 Скачать
1 | 0

28-11-2019 20:33  

Отключить всю рекламу на сайте

    Дорогой пользователь! Огромная просьба, поблагодарите релизера, оцените раздачу и оставьте свои комментарий, если Вы скачали Куртизанки через торрент бесплатно! Внесите свою лепту в развитие PiratBit!
    Комментировать посты могут только пользователи прошедшие не сложную регистрацию
    Показать сообщения:    

    Куртизанки через торрент
    Скачать бесплатно Куртизанки
    Куртизанки скачать торрент
    Куртизанки смотреть онлайн
    Cкачать фильм Куртизанки бесплатно
    Куртизанки скачать торрент в хорошем качестве
    Куртизанки смотреть онлайн бесплатно в хорошем качестве


    Вы не можете начинать темы
    Вы не можете отвечать на сообщения
    Вы не можете редактировать свои сообщения
    Вы не можете удалять свои сообщения
    Вы не можете голосовать в опросах
    Вы не можете прикреплять файлы к сообщениям
    Вы можете скачивать файлы