Ссылка на приватное зеркало нашего сайта всего за 1$. Внимание количество ограничено!!!

2 сезон

iTunes

1 сезон

1

2 сезон

2 сезон

iTunes

1 сезон

RePack

30

Ultimate

ВАЖНО

ИГРА 18+

pack

RePack

MK11
pack

Забери бонус

RePack

jed

!!Акция!!

Alien_Rage

RePack

fifa19

RePack

Assassins Creed: Odyssey

RePack

NEED FOR SPEED™ PAYBACK

4 сезон

9 сезон

Бесстыжие 9 сезон

Все сериалы

все сериалы на PB.wtf

RePack

FAR CRY 5
  

В упор / Point Blank (Джо Линч) [2019, Боевик, триллер, криминал, WEB-DL 1080p] DUB [Netflix] pb.wtf

В упор через торрент pb.wtf

Раздают: 1 [ 0 KB/s ]
Размер: 3.13 GB | Добавлен: 1 год 4 мес. назад | Торрент скачан:431 раз
Скачать  

12-07-2019 09:24 В упор Скачать торрент  

В упор / Point Blank
Год выпуска: 2019
Страна: США
Жанр: Боевик, триллер, криминал
Продолжительность: 01:26:38
Перевод: Дублированный | Netflix
Субтитры: русские (форс., полные), английские (SDH)

Режиссер: Джо Линч

rating


В ролях: Энтони Маки, Фрэнк Грилло, Марша Гей Харден, Кристиан Кук, Тейона Паррис, Борис МакГайвер, Карли Тамборски, Мин Ван, Маркис Мур, Лиа Хаттон Бисмор и др.

Описание: Неизвестные проникают в дом врача скорой помощи Пола и похищают его беременную жену. Чтобы ее вернуть, Полу нужно освободить преступника, попавшего в его больницу

Качество: WEB-DL 1080p
Формат: MKV

Видео: MPEG-4 AVC, 1920x1080, 3316 kbps, 23,976 fps
Аудио#1: русский, E-AC3, 5.1 ch, 48 kHz, 640 kbps
Аудио#2: русский, AC3, 5.1 ch, 48 kHz, 448 kbps
Аудио#3: английский, E-AC3, 5.1 ch, 48 kHz, 768 kbps
скриншот  скриншот  скриншот  скриншот  скриншот  

скриншот  скриншот  скриншот  скриншот  скриншот  

Общее
Уникальный идентификатор : 220602433497196267944932647148235284720 (0xA5F67BB61EF35C2D987C6E2430F860F0)
Полное имя : F:TorrentPointBlankWEBDL1080p.mkv
Формат : Matroska
Версия формата : Version 4 / Version 2
Размер файла : 3,13 Гбайт
Продолжительность : 1 ч. 26 м.
Общий поток : 5174 Кбит/сек
Дата кодирования : UTC 2019-07-12 08:47:05
Программа кодирования : mkvmerge v9.5.0 ('Quiet Fire') 64bit
Библиотека кодирования : libebml v1.3.4 + libmatroska v1.4.5

Видео
Идентификатор : 1
Формат : AVC
Формат/Информация : Advanced Video Codec
Профиль формата : High@L4
Настройки формата : CABAC / 3 Ref Frames
Параметр CABAC формата : Да
Параметр RefFrames формата : 3 кадра
Идентификатор кодека : V_MPEG4/ISO/AVC
Продолжительность : 1 ч. 26 м.
Битрейт : 3316 Кбит/сек
Ширина : 1920 пикселей
Высота : 1080 пикселей
Соотношение сторон : 16:9
Режим частоты кадров : Постоянный
Частота кадров : 23,976 (24000/1001) кадра/сек
Цветовое пространство : YUV
Субдискретизация насыщенности : 4:2:0
Битовая глубина : 8 бит
Тип развёртки : Прогрессивная
Бит/(Пиксели*Кадры) : 0.067
Размер потока : 2,01 Гбайт (64%)
Язык : English
Default : Да
Forced : Нет

Аудио #1
Идентификатор : 2
Формат : E-AC-3
Формат/Информация : Enhanced Audio Coding 3
Параметр Endianness формата : Big
Идентификатор кодека : A_EAC3
Продолжительность : 1 ч. 26 м.
Вид битрейта : Постоянный
Битрейт : 640 Кбит/сек
Каналы : 6 каналов
Расположение каналов : Front: L C R, Side: L R, LFE
Частота : 48,0 КГц
Частота кадров : 187,500 кадров/сек (256 SPF)
Метод сжатия : С потерями
Размер потока : 397 Мбайт (12%)
Заголовок : rus
Язык : Russian
Default : Да
Forced : Нет

Аудио #2
Идентификатор : 3
Формат : AC-3
Формат/Информация : Audio Coding 3
Параметр Endianness формата : Big
Идентификатор кодека : A_AC3
Продолжительность : 1 ч. 26 м.
Вид битрейта : Постоянный
Битрейт : 448 Кбит/сек
Каналы : 6 каналов
Расположение каналов : Front: L C R, Side: L R, LFE
Частота : 48,0 КГц
Частота кадров : 31,250 кадров/сек (1536 SPF)
Битовая глубина : 16 бит
Метод сжатия : С потерями
Размер потока : 278 Мбайт (9%)
Заголовок : rus2
Язык : Russian
Default : Нет
Forced : Нет

Аудио #3
Идентификатор : 4
Формат : E-AC-3
Формат/Информация : Enhanced Audio Coding 3
Профиль формата : E-AC-3+Atmos / E-AC-3
Параметр Endianness формата : Big
Идентификатор кодека : A_EAC3
Продолжительность : 1 ч. 26 м.
Вид битрейта : Постоянный
Битрейт : 768 Кбит/сек
Каналы : 15 objects / 6 каналов
Расположение каналов : 15 objects / Front: L C R, Side: L R, LFE
Частота : 48,0 КГц
Частота кадров : 187,500 кадров/сек (256 SPF)
Метод сжатия : С потерями
Размер потока : 476 Мбайт (15%)
Заголовок : eng
Язык : English
Default : Нет
Forced : Нет

Текст #1
Идентификатор : 5
Формат : UTF-8
Идентификатор кодека : S_TEXT/UTF8
Идентификатор кодека/Информация : UTF-8 Plain Text
Продолжительность : 1 ч. 20 м.
Битрейт : 1 бит/сек
ElementCount : 16
Размер потока : 735 байт (0%)
Заголовок : rusForced
Язык : Russian
Default : Да
Forced : Да

Текст #2
Идентификатор : 6
Формат : UTF-8
Идентификатор кодека : S_TEXT/UTF8
Идентификатор кодека/Информация : UTF-8 Plain Text
Продолжительность : 1 ч. 25 м.
Битрейт : 85 бит/сек
ElementCount : 1146
Размер потока : 53,3 Кбайт (0%)
Заголовок : rusFull
Язык : Russian
Default : Нет
Forced : Нет

Текст #3
Идентификатор : 7
Формат : UTF-8
Идентификатор кодека : S_TEXT/UTF8
Идентификатор кодека/Информация : UTF-8 Plain Text
Продолжительность : 1 ч. 21 м.
Битрейт : 83 бит/сек
ElementCount : 1539
Размер потока : 49,8 Кбайт (0%)
Заголовок : engSDH
Язык : English
Default : Нет
Forced : Нет

pb.wtf



Скачать В упор через торрент http://lostpix.com/thumbs/2019-07/11/gy8ibpjmltx148y1bqvfqup5h.png Скачать фильм В упор через торрент бесплантно в хорошем качестве Описание: Неизвестные проникают в дом врача скорой помощи Пола и похищают его беременную жену. Чтобы ее вернуть, Полу нужно освободить ... 10 10 11
Торрент: Зарегистрирован [2019-07-12 09:24] · скачан: 431 раз
Статус: √ проверено
Размер: 3.13 GB
Как cкачать? Как скачать В упор через торрент | qTorrent

% Раздел Тема Автор DL S | L
Фильмы 2019-2020 [DVDrip, WEB-DLRip, HDrip] (DUB, MVO) [ 1.45 GB ] В упор / Point Blank [2019 WEB-DLRip] DUB [Netflix] bober100 Скачать
1 | 0
Фильмы 2019-2020 [DVDrip, WEB-DLRip, HDrip] (DUB, MVO) [ 744 MB ] В упор / Point Blank [2019 WEB-DLRip-AVC] sokol_ok Скачать
5 | 0
Фильмы 2019-2020 [DVDrip, WEB-DLRip, HDrip] (DUB, MVO) [ 2.13 GB ] В упор / Point Blank [2019 WEB-DLRip-AVC] sokol_ok Скачать
4 | 0
Фильмы 2019-2020 [DVDrip, WEB-DLRip, HDrip] (DUB, MVO) [ 1.36 GB ] В упор / Point Blank [2019 WEB-DLRip-AVC] sokol_ok Скачать
13 | 0
Фильмы [HD 720p, 1080p] (Хороший звук DUB, MVO) [ 9.1 GB ] В упор / Point Blank [1967 BDRip 1080p by msltel] MVO msltel Скачать
1 | 0
Фильмы [HD 720p, 1080p] (Хороший звук DUB, MVO) [ 3.38 GB ] В упор / Point Blank [1967 BDRip 720p by msltel] MVO msltel Скачать
1 | 0
Action FPS (1st Person) [ 401 MB ] Выстрел в Упор : Point Blank Shmel Скачать
1 | 0

28-11-2019 20:33  

Отключить всю рекламу на сайте

    Дорогой пользователь! Огромная просьба, поблагодарите релизера, оцените раздачу и оставьте свои комментарий, если Вы скачали В упор через торрент бесплатно! Внесите свою лепту в развитие PiratBit!
    Комментировать посты могут только пользователи прошедшие не сложную регистрацию
    Показать сообщения:    

    В упор через торрент
    Скачать бесплатно В упор
    В упор скачать торрент
    В упор смотреть онлайн
    Cкачать фильм В упор бесплатно
    В упор скачать торрент в хорошем качестве
    В упор смотреть онлайн бесплатно в хорошем качестве


    Вы не можете начинать темы
    Вы не можете отвечать на сообщения
    Вы не можете редактировать свои сообщения
    Вы не можете удалять свои сообщения
    Вы не можете голосовать в опросах
    Вы не можете прикреплять файлы к сообщениям
    Вы можете скачивать файлы