новый адрес
Ссылка на приватное зеркало всего за 1$. Внимание количество ограничено!!!

iTunes

1+1

iTunes

мы

iTunes

1

iTunes

Чернобыль

iTunes

Ральф против интернета

Лицензия

ПШазам

Лицензия

Оно 2

Лицензия

30
pack

Вам бонус

ВАЖНО

!!Акция!!

Alien_RageХит недели

RePack

Resident Evil 21

ИГРА 18+

pack

RePack

jed

!!Акция!!

Alien_Rage

RePack

fifa19

RePack

Assassins Creed: Odyssey

RePack

NEED FOR SPEED™ PAYBACK

3 сезон

9 сезон

Бесстыжие 9 сезон

Все сериалы

все сериалы на PB.wtf

RePack

FAR CRY 5
Ребята, катастрофически не хватает 1900р. для оплаты серверов за Октябрь (всвязи с блокировками трафик упал в 3 раза), 1-2р., выручайте.
  

В упор / Point Blank (Джо Линч) [2019, Боевик, триллер, криминал, WEB-DLRip] DUB [Netflix] pb.wtf

В упор через торрент pb.wtf

Раздают: 6 [ 0.1 KB/s ]
Размер: 1.45 GB | Добавлен: 4 мес. 24 д. назад | Торрент скачан:495 раз
Скачать  

12-07-2019 09:27 В упор Скачать торрент  

В упор / Point Blank
Год выпуска: 2019
Страна: США
Жанр: Боевик, триллер, криминал
Продолжительность: 01:26:38
Перевод: Дублированный | Netflix
Субтитры: русские (форс. вшитые)

Режиссер: Джо Линч

rating


В ролях: Энтони Маки, Фрэнк Грилло, Марша Гей Харден, Кристиан Кук, Тейона Паррис, Борис МакГайвер, Карли Тамборски, Мин Ван, Маркис Мур, Лиа Хаттон Бисмор и др.

Описание: Неизвестные проникают в дом врача скорой помощи Пола и похищают его беременную жену. Чтобы ее вернуть, Полу нужно освободить преступника, попавшего в его больницу

Качество: WEB-DLRip
Формат: AVI

Видео: Xvid 73, 720x304, ~1942 kbps, 23,976 fps
Аудио: русский, AC3, 5.1 ch, 48 kHz, 448 kbps
скриншот  скриншот  скриншот  скриншот  скриншот  

скриншот  скриншот  скриншот  скриншот  скриншот  

Общее
Полное имя : F:TorrentPointBlankWEBDLRip.avi
Формат : AVI
Формат/Информация : Audio Video Interleave
Профиль формата : OpenDML
Размер файла : 1,45 Гбайт
Продолжительность : 1 ч. 26 м.
Общий поток : 2402 Кбит/сек
Программа кодирования : XviD4PSP 6.0 / 54.27.101

Видео
Идентификатор : 0
Формат : MPEG-4 Visual
Профиль формата : Advanced Simple@L5
Настройки формата : BVOP1 / Custom Matrix
Параметр BVOP формата : 1
Параметр QPel формата : Нет
Параметр GMC формата : Без точки перехода
Параметр матрицы формата : Выборочная
Идентификатор кодека : XVID
Идентификатор кодека/Подсказка : XviD
Продолжительность : 1 ч. 26 м.
Битрейт : 1942 Кбит/сек
Ширина : 720 пикселей
Высота : 304 пикселя
Соотношение сторон : 2,35:1
Частота кадров : 23,976 (23976/1000) кадра/сек
Цветовое пространство : YUV
Субдискретизация насыщенности : 4:2:0
Битовая глубина : 8 бит
Тип развёртки : Прогрессивная
Метод сжатия : С потерями
Бит/(Пиксели*Кадры) : 0.370
Размер потока : 1,18 Гбайт (81%)
Библиотека кодирования : XviD 73

Аудио
Идентификатор : 1
Формат : AC-3
Формат/Информация : Audio Coding 3
Параметр Endianness формата : Big
Идентификатор кодека : 2000
Продолжительность : 1 ч. 26 м.
Вид битрейта : Постоянный
Битрейт : 448 Кбит/сек
Каналы : 6 каналов
Расположение каналов : Front: L C R, Side: L R, LFE
Частота : 48,0 КГц
Частота кадров : 31,250 кадров/сек (1536 SPF)
Битовая глубина : 16 бит
Метод сжатия : С потерями
Размер потока : 278 Мбайт (19%)
Выравнивание : Соединение по промежуткам
Продолжительность промежутка : 32 мс. (0,77 видеокадр)

pb.wtf



Скачать В упор через торрент http://lostpix.com/thumbs/2019-07/11/gy8ibpjmltx148y1bqvfqup5h.png Скачать фильм В упор через торрент бесплантно в хорошем качестве Описание: Неизвестные проникают в дом врача скорой помощи Пола и похищают его беременную жену. Чтобы ее вернуть, Полу нужно освободить ... 9.9 10 15
Торрент: Зарегистрирован [2019-07-12 09:27] · скачан: 495 раз
Статус: √ проверено
Размер: 1.45 GB
Как cкачать? Как скачать В упор через торрент | qTorrent

% Раздел Тема Автор DL S | L
Фильмы 2019 [DVDrip, WEB-DLRip, HDrip] (DUB, MVO) [ 744 MB ] В упор / Point Blank [2019 WEB-DLRip-AVC] sokol_ok Скачать
25 | 4
Фильмы 2019 [DVDrip, WEB-DLRip, HDrip] (DUB, MVO) [ 2.13 GB ] В упор / Point Blank [2019 WEB-DLRip-AVC] sokol_ok Скачать
20 | 25
Фильмы 2019 [DVDrip, WEB-DLRip, HDrip] (DUB, MVO) [ 1.36 GB ] В упор / Point Blank [2019 WEB-DLRip-AVC] sokol_ok Скачать
40 | 0
Фильмы (WEB-DL 720p, 1080p) [ 3.13 GB ] В упор / Point Blank [2019 WEB-DL 1080p] DUB [Netflix] bober100 Скачать
5 | 0
Фильмы [HD 720p, 1080p] (Хороший звук DUB, MVO) [ 9.1 GB ] В упор / Point Blank [1967 BDRip 1080p by msltel] MVO msltel Скачать
1 | 0
Фильмы [HD 720p, 1080p] (Хороший звук DUB, MVO) [ 3.38 GB ] В упор / Point Blank [1967 BDRip 720p by msltel] MVO msltel Скачать
1 | 0
Action FPS (1st Person) [ 401 MB ] Выстрел в Упор : Point Blank Shmel Скачать
1 | 0
Отключить всю рекламу на сайте

13-07-2019 06:40 В упор Скачать торрент  

Неплохой такой фильмец, в выходной посмотреть можно...pb.wtf



    Дорогой пользователь! Огромная просьба, поблагодарите релизера, оцените раздачу и оставьте свои комментарий, если Вы скачали В упор через торрент бесплатно! Внесите свою лепту в развитие PiratBit!
    Комментировать посты могут только пользователи прошедшие не сложную регистрацию
    Показать сообщения:    

    В упор через торрент
    Скачать бесплатно В упор
    В упор скачать торрент
    В упор смотреть онлайн
    Cкачать фильм В упор бесплатно
    В упор скачать торрент в хорошем качестве
    В упор смотреть онлайн бесплатно в хорошем качестве


    Вы не можете начинать темы
    Вы не можете отвечать на сообщения
    Вы не можете редактировать свои сообщения
    Вы не можете удалять свои сообщения
    Вы не можете голосовать в опросах
    Вы не можете прикреплять файлы к сообщениям
    Вы можете скачивать файлы