новый адрес
Ссылка на приватное зеркало всего за 1$. Внимание количество ограничено!!!

iTunes

1+1

iTunes

мы

iTunes

1

iTunes

Чернобыль

iTunes

Ральф против интернета

Лицензия

ПШазам

Лицензия

Оно 2

Лицензия

30
pack

Вам бонус

ВАЖНО

!!Акция!!

Alien_RageХит недели

RePack

Resident Evil 21

ИГРА 18+

pack

RePack

jed

!!Акция!!

Alien_Rage

RePack

fifa19

RePack

Assassins Creed: Odyssey

RePack

NEED FOR SPEED™ PAYBACK

3 сезон

9 сезон

Бесстыжие 9 сезон

Все сериалы

все сериалы на PB.wtf

RePack

FAR CRY 5
Ребята, катастрофически не хватает 1900р. для оплаты серверов за Октябрь (всвязи с блокировками трафик упал в 3 раза), 1-2р., выручайте.
  

Чего хотят мужчины / Po cem muzi touzí (Рудольф Гавлик) [2018, фэнтези, комедия, WEB-DLRip-AVC] Dub [iTunes] - ExKinoRay pb.wtf

Чего хотят мужчины через торрент pb.wtf

Раздают: 18 [ 79 KB/s ] Качают: 1 [ 168 KB/s ]
Размер: 1.49 GB | Добавлен: 1 мес. 14 д. назад | Торрент скачан:75 раз
Скачать  

12-07-2019 11:58 Чего хотят мужчины Скачать торрент  

Название: Чего хотят мужчины
Оригинальное название: Po cem muzi touzí
Год выпуска: 2018
Жанр: Фэнтези, комедия
Режиссер: Рудольф Гавлик
В ролях: Анна Поливкова, Иржи Лангмайер, Татьяна Паугофова, Сара Сандева, Матей Гадек, Ленка Власакова, Андреа Хоффманова, Иржи Хавелка, Олдрич Навратил, Надя Конвалинкова

Описание: Харизматичный и уверенный в себе Карл работает главным редактором популярного мужского журнала. Его карьера на взлёте. Все женщины от него без ума. Казалось бы, жизнь Карла вполне удалась... Пока однажды судьба не преподносит ему череду неожиданных сюрпризов, за один день перевернув всё с ног на голову. Проснувшись после бурно проведённой ночи, Карл обнаруживает себя... в женском теле! Теперь ему предстоит взглянуть на мужской мир с женской стороны.

rating

Выпущено: Чехия, Fénix Film
Продолжительность: 01:31:40
Перевод: Дублированный (iTunes)

БЕЗ КАКОЙ-ЛИБО РЕКЛАМЫ!

Формат: MKV
Качество: WEB-DLRip-AVC
Видео: MPEG-4 AVC, 1024x456 (2.40:1), 23.976 fps, 1950 Kbps, 0.174 bit/pixel
Аудио : 48 kHz, AC3, 5.1, 384 Kbps | Dub | RUS |
General
Unique ID : 196926357819630626049119761621407247068 (0x9426A30E4376C5CCBA2AD28881182ADC)
Complete name : F:\Po.cem.muzi.touz.2018.WEB-DLRip.AVC.ExKinoRay.mkv
Format : Matroska
Format version : Version 2
File size : 1.49 GiB
Duration : 1 h 31 min
Overall bit rate : 2 335 kb/s
Movie name : Чего хотят мужчины 2018 from ExKinoRay
Encoded date : UTC 2019-10-22 17:30:05
Writing application : mkvmerge v5.6.0 ('Kenya Kane') built on May 27 2012 16:44:04
Writing library : libebml v1.2.3 + libmatroska v1.3.0

Video
ID : 1
Format : AVC
Format/Info : Advanced Video Codec
Format profile : High@L4.1
Format settings, CABAC : Yes
Format settings, ReFrames : 11 frames
Codec ID : V_MPEG4/ISO/AVC
Duration : 1 h 31 min
Bit rate : 1 950 kb/s
Width : 1 024 pixels
Height : 456 pixels
Display aspect ratio : 2.25:1
Frame rate mode : Constant
Frame rate : 23.976 (23976/1000) FPS
Color space : YUV
Chroma subsampling : 4:2:0
Bit depth : 8 bits
Scan type : Progressive
Bits/(Pixel*Frame) : 0.174
Stream size : 1.22 GiB (82%)
Title : Enigma
Writing library : x264 core 152 r2851 ba24899
Encoding settings : cabac=1 / ref=11 / deblock=1:-2:-2 / analyse=0x3:0x113 / me=umh / subme=10 / psy=1 / psy_rd=1.05:0.12 / mixed_ref=1 / me_range=32 / chroma_me=1 / trellis=2 / 8x8dct=1 / cqm=0 / deadzone=21,11 / fast_pskip=0 / chroma_qp_offset=-3 / threads=12 / lookahead_threads=3 / sliced_threads=0 / nr=0 / decimate=0 / interlaced=0 / bluray_compat=0 / constrained_intra=0 / bframes=10 / b_pyramid=2 / b_adapt=2 / b_bias=0 / direct=3 / weightb=1 / open_gop=0 / weightp=2 / keyint=240 / keyint_min=23 / scenecut=40 / intra_refresh=0 / rc=2pass / mbtree=0 / bitrate=1950 / ratetol=1.0 / qcomp=0.60 / qpmin=0 / qpmax=51 / qpstep=4 / cplxblur=20.0 / qblur=0.5 / ip_ratio=1.40 / pb_ratio=1.30 / aq=1:1.00
Language : English
Default : Yes
Forced : No
Color range : Limited
Color primaries : BT.709
Transfer characteristics : BT.709
Matrix coefficients : BT.709

Audio
ID : 2
Format : AC-3
Format/Info : Audio Coding 3
Mode extension : CM (complete main)
Format settings, Endianness : Big
Codec ID : A_AC3
Duration : 1 h 31 min
Bit rate mode : Constant
Bit rate : 384 kb/s
Channel(s) : 6 channels
Channel positions : Front: L C R, Side: L R, LFE
Sampling rate : 48.0 kHz
Frame rate : 31.250 FPS (1536 spf)
Compression mode : Lossy
Stream size : 252 MiB (16%)
Title : Dub (iTunes)
Language : Russian
Default : Yes
Forced : No


Релиз от:

Автор релиза: pb.wtf



Скачать Чего хотят мужчины через торрент https://d.radikal.ru/d26/1907/8c/11a29ab51fd7.jpg Скачать фильм Чего хотят мужчины через торрент бесплантно в хорошем качестве Описание: Харизматичный и уверенный в себе Карл работает главным редактором популярного мужского журнала. Его карьера на взлёте. Все ... 8.2 10 5
Info! Золотая раздача, скачанное не засчитывается.
Торрент: Зарегистрирован [2019-10-22 18:46] · скачан: 75 раз
Статус: √ проверено
Размер: 1.49 GB
Как cкачать? Как скачать Чего хотят мужчины через торрент | qTorrent

Отключить всю рекламу на сайте
    Дорогой пользователь! Огромная просьба, поблагодарите релизера, оцените раздачу и оставьте свои комментарий, если Вы скачали Чего хотят мужчины через торрент бесплатно! Внесите свою лепту в развитие PiratBit!
    Комментировать посты могут только пользователи прошедшие не сложную регистрацию
    Показать сообщения:    

    Чего хотят мужчины через торрент
    Скачать бесплатно Чего хотят мужчины
    Чего хотят мужчины скачать торрент
    Чего хотят мужчины смотреть онлайн
    Cкачать фильм Чего хотят мужчины бесплатно
    Чего хотят мужчины скачать торрент в хорошем качестве
    Чего хотят мужчины смотреть онлайн бесплатно в хорошем качестве


    Вы не можете начинать темы
    Вы не можете отвечать на сообщения
    Вы не можете редактировать свои сообщения
    Вы не можете удалять свои сообщения
    Вы не можете голосовать в опросах
    Вы не можете прикреплять файлы к сообщениям
    Вы можете скачивать файлы