Ссылка на приватное зеркало нашего сайта всего за 1$. Внимание количество ограничено!!!

2 сезон

iTunes

1 сезон

1

2 сезон

2 сезон

iTunes

1 сезон

RePack

30

Новинка

ВАЖНО

ИГРА 18+

pack

RePack

MK11
pack

Забери бонус

RePack

jed

!!Акция!!

Alien_Rage

RePack

fifa19

RePack

Assassins Creed: Odyssey

RePack

NEED FOR SPEED™ PAYBACK

4 сезон

9 сезон

Бесстыжие 9 сезон

Все сериалы

все сериалы на PB.wtf

RePack

FAR CRY 5
  

Аванпост / The Outpost / Сезон: 1 / Серии: 1-10 из 10 (Джон Лойд, Кайнен Гриффин, Курт Найт) [2018, Фэнтези, WEB-DL 720p] MVO [LostFilm] pb.wtf

Аванпост через торрент pb.wtf

Раздают: 1 [ 61 KB/s ]
Размер: 9.56 GB | Добавлен: 1 год 4 мес. назад | Торрент скачан:90 раз
Скачать  

12-07-2019 12:18 Аванпост Скачать торрент  

Аванпост / The Outpost
Год выпуска: 2018
Страна: США
Жанр: Фэнтези
Продолжительность: ~ 00:45:00
Перевод: Профессиональный многоголосый |
Субтитры: Русские, английские

Режиссер: Джон Лойд, Кайнен Гриффин, Курт Найт

rating

В ролях:

Джессика Грин, Эндрю Ховард, Робин Малкольм, Чаран Прабхакар, Филип Броди, Кевин МакНэлли, Кокей Фалкоу, Эми Де Брюн, Шон Брэдли Хофер, Джейк Стормоен

Описание:

В центре сюжета оказывается юная и прекрасная представительница расы Чернокровок Тэлен. Она ищет убийц своей семьи, следы которых ведут в крепость, находящуюся на границе обитаемых земель. Во время длительной путешествия девушка обнаруживает у себя сверхъестественные способности, которыми ей придется овладеть, чтобы спасти себя и защитить мир от фанатичного религиозного диктатора.

Качество: WEB-DL 720p | Без заставки и логотипа LostFilm.
Формат: MKV

Видео: 1280x720 at 23.976 fps, AVC, ~3 500 kbps avg
Аудио#1: Russian: 48 kHz, AC3, 2/0 (L,R) ch, ~384 kbps avg |Многоголосый закадровый, LostFilm|
Аудио#2: English: 48 kHz, AC3, 3/2 (L,C,R,l,r) + LFE ch, ~384 kbps avg
скриншот  скриншот  скриншот  скриншот  

Общее
Уникальный идентификатор : 226265791298899229851773152335336308191 (0xAA3934CF1D12FBFDB64648D1AA87FDDF)
Полное имя : C:\Users\Бобер\Desktop\The.Outpost.S01.AMZN.WEB-DL.720p\The.Outpost.S01E01.One.is.the.Loneliest.Number.WEB-DL.720p.mkv
Формат : Matroska
Версия формата : Version 4 / Version 2
Размер файла : 1,24 Гбайт
Продолжительность : 42 м. 26 с.
Общий поток : 4191 Кбит/сек
Дата кодирования : UTC 2018-07-17 09:43:39
Программа кодирования : mkvmerge v6.9.1 ('Blue Panther') 64bit built on Apr 18 2014 18:23:38
Библиотека кодирования : libebml v1.3.0 + libmatroska v1.4.1

Видео
Идентификатор : 1
Формат : AVC
Формат/Информация : Advanced Video Codec
Профиль формата : High@L3.1
Параметр CABAC формата : Да
Параметр RefFrames формата : 5 кадров
Идентификатор кодека : V_MPEG4/ISO/AVC
Продолжительность : 42 м. 26 с.
Битрейт : 3340 Кбит/сек
Ширина : 1280 пикселей
Высота : 720 пикселей
Соотношение сторон : 16:9
Режим частоты кадров : Постоянный
Частота кадров : 23,976 (24000/1001) кадра/сек
Цветовое пространство : YUV
Субдискретизация насыщенности : 4:2:0
Битовая глубина : 8 бит
Тип развёртки : Прогрессивная
Бит/(Пиксели*Кадры) : 0.151
Размер потока : 1014 Мбайт (80%)
Язык : English
Default : Да
Forced : Нет
Цветовой диапазон : Limited
Основные цвета : BT.709
Характеристики трансфера : BT.709
Коэффициенты матрицы : BT.709

Аудио #1
Идентификатор : 2
Формат : AC-3
Формат/Информация : Audio Coding 3
Расширение режима : CM (complete main)
Параметр Endianness формата : Big
Идентификатор кодека : A_AC3
Продолжительность : 42 м. 26 с.
Вид битрейта : Постоянный
Битрейт : 384 Кбит/сек
Каналы : 2 канала
Расположение каналов : Front: L R
Частота : 48,0 КГц
Частота кадров : 31,250 кадров/сек (1536 spf)
Метод сжатия : С потерями
Размер потока : 117 Мбайт (9%)
Заголовок : LostFilm
Язык : Russian
Default : Да
Forced : Нет

Аудио #2
Идентификатор : 3
Формат : AC-3
Формат/Информация : Audio Coding 3
Расширение режима : CM (complete main)
Параметр Endianness формата : Big
Идентификатор кодека : A_AC3
Продолжительность : 42 м. 26 с.
Вид битрейта : Постоянный
Битрейт : 384 Кбит/сек
Каналы : 6 каналов
Расположение каналов : Front: L C R, Side: L R, LFE
Частота : 48,0 КГц
Частота кадров : 31,250 кадров/сек (1536 spf)
Метод сжатия : С потерями
Размер потока : 117 Мбайт (9%)
Заголовок : original
Язык : English
Default : Нет
Forced : Нет

pb.wtf



Скачать Аванпост через торрент https://img11.lostpic.net/2018/07/13/c3cf7f5dd128e69a1bb7dac2977389e4.jpg Скачать фильм Аванпост через торрент бесплантно в хорошем качестве Описание: В центре сюжета оказывается юная и прекрасная представительница расы Чернокровок Тэлен. Она ищет убийц своей семьи, следы которых ... 8.5 10 6
Торрент: Зарегистрирован [2019-07-12 12:18] · скачан: 90 раз
Статус: √ проверено
Размер: 9.56 GB
Как cкачать? Как скачать Аванпост через торрент | qTorrent

% Раздел Тема Автор DL S | L
Зарубежные сериалы [ 17.54 GB ] Аванпост / Застава / The Outpost / Сезон: 3 / Серии: 1-6 из 13 [2020 WEB-DL 1080p] MVO [Jaskier] bober100 Скачать
1 | 1
Зарубежные сериалы [ 38.4 GB ] Аванпост / The Outpost / Сезон: 2 / Серии: 1-13 из 13 [2019 WEB-DL 1080p] MVO [TVShows] bober100 Скачать
1 | 0
Зарубежные сериалы [ 5.35 GB ] Аванпост / The Outpost / Сезон: 1 / Серии: 1-10 из 10 [2018 WEB-DLRip] MVO [LostFilm] bober100 Скачать
2 | 0
Зарубежные сериалы [ 17.89 GB ] Аванпост / Застава / The Outpost / Сезон: 1 / Серии: 1-10 из 10 [2018 WEB-DL 1080p] MVO [NewStudio] bober100 Скачать
1 | 0
Зарубежные сериалы [ 5.37 GB ] Аванпост / Застава / The Outpost / Сезон: 1 / Серии: 1-10 из 10 [2018 WEB-DLRip] MVO [NewStudio] bober100 Скачать
1 | 0
Зарубежные сериалы [ 9.81 GB ] Аванпост / Застава / The Outpost / Сезон: 1 / Серии: 1-10 из 10 [2018 WEB-DL 720p] MVO [Jaskier] bober100 Скачать
3 | 0
Зарубежные сериалы [ 19.17 GB ] Аванпост / The Outpost / Сезон: 1 / Серии: 1-10 из 10 [2018 WEB-DL 1080p] MVO [LostFilm] bober100 Скачать
1 | 0

28-11-2019 20:33  

Отключить всю рекламу на сайте

    Дорогой пользователь! Огромная просьба, поблагодарите релизера, оцените раздачу и оставьте свои комментарий, если Вы скачали Аванпост через торрент бесплатно! Внесите свою лепту в развитие PiratBit!
    Комментировать посты могут только пользователи прошедшие не сложную регистрацию
    Показать сообщения:    

    Аванпост через торрент
    Скачать бесплатно Аванпост
    Аванпост скачать торрент
    Аванпост смотреть онлайн
    Cкачать фильм Аванпост бесплатно
    Аванпост скачать торрент в хорошем качестве
    Аванпост смотреть онлайн бесплатно в хорошем качестве


    Вы не можете начинать темы
    Вы не можете отвечать на сообщения
    Вы не можете редактировать свои сообщения
    Вы не можете удалять свои сообщения
    Вы не можете голосовать в опросах
    Вы не можете прикреплять файлы к сообщениям
    Вы можете скачивать файлы