Ссылка на приватное зеркало всего за 1$. Внимание количество ограничено!!!

iTunes

iTunes

iTunes

1

iTunes

iTunes

iTunes

iTunes

iTunes

30
pack

$ от Little Big

ВАЖНО

!!Акция!!

Alien_RageХит недели

RePack

Resident Evil 21

ИГРА 18+

pack

RePack

jed

!!Акция!!

Alien_Rage

RePack

fifa19

RePack

Assassins Creed: Odyssey

RePack

NEED FOR SPEED™ PAYBACK

4 сезон

9 сезон

Бесстыжие 9 сезон

Все сериалы

все сериалы на PB.wtf

RePack

FAR CRY 5
  

Тишина (Владимир Басов) [1963, СССР, драма, DVDRip от AVP Studio] pb.wtf

Тишина через торрент pb.wtf

Качают: 1 [ 0 KB/s ]
Размер: 1.45 GB | Добавлен: 11 мес. назад | Торрент скачан:14 раз
Скачать  

12-07-2019 12:42 Тишина Скачать торрент  

Тишина
Страна: СССР
Производство: Мосфильм

Жанр: драма
Год выпуска: 1963
Продолжительность: 01:35:21 + 01:41:14

Перевод: Не требуется
Cубтитры: нет
Оригинальная аудиодорожка: русский

Режиссер: Владимир Басов

В ролях:
Виталий Коняев, Георгий Мартынюк, Лариса Лужина, Наталья Величко, Владимир Емельянов, Николай Волков (старший), Лилия Гриценко, Сергей Плотников, Георгий Жжёнов, Владимир Земляникин, Виктор Ломакин, Геннадий Ненашев, Евгений Лазарев, Всеволод Сафонов, Михаил Ульянов, Лидия Смирнова, Иван Переверзев...
Об актёрах подробней

Описание:
Демобилизованный Сергей Вохминцев возвращается в Москву и поступает в институт. Неожиданно по клеветническому доносу соседа арестовывают его отца, а Сергея, как сына «врага народа», исключают из партии и института. Парень едет в Казахстан, работает на стройке. У него много верных друзей, и он верит в справедливость…

Источник: DVD9 R5
Качество видео: DVDRip
Формат видео: AVI

Видео: 720х352 (2,045:1), 25,000 fps, XviD ~ 891 kbps avg, 0.141 bit/pixel
Аудио: 48 kHz, Dolby Digital AC3 2.0, 192 kbps

Раздача от:
Общее
Полное имя : Tishina.1963.DVDRip_[New-team]_by_AVP_Studio.avi
Формат : AVI
Формат/Информация : Audio Video Interleave
Размер файла : 745 Мбайт
Продолжительность : 1 ч. 35 м.
Общий поток : 1092 Кбит/сек
Программа кодирования : VirtualDubMod 1.5.10.3 | www.virtualdub-fr.org || (build 2550/release)
Библиотека кодирования : VirtualDubMod build 2550/release

Видео
Идентификатор : 0
Формат : MPEG-4 Visual
Профиль формата : Advanced Simple@L5
Настройки формата : BVOP1 / Custom Matrix
Параметр BVOP формата : 1
Параметр QPel формата : Нет
Параметр GMC формата : Без точки перехода
Параметр матрицы формата : Выборочная
Идентификатор кодека : XVID
Идентификатор кодека/Подсказка : XviD
Продолжительность : 1 ч. 35 м.
Битрейт : 891 Кбит/сек
Ширина : 720 пикселей
Высота : 352 пикселя
Соотношение сторон : 2,045
Частота кадров : 25,000 кадров/сек
Цветовое пространство : YUV
Субдискретизация насыщенности : 4:2:0
Битовая глубина : 8 бит
Тип развёртки : Прогрессивная
Метод сжатия : С потерями
Бит/(Пиксели*Кадры) : 0.141
Размер потока : 607 Мбайт (82%)
Библиотека кодирования : XviD 73

Аудио
Идентификатор : 1
Формат : AC-3
Формат/Информация : Audio Coding 3
Коммерческое название : Dolby Digital
Идентификатор кодека : 2000
Продолжительность : 1 ч. 35 м.
Вид битрейта : Постоянный
Битрейт : 192 Кбит/сек
Каналы : 2 канала
ChannelLayout : L R
Частота : 48,0 КГц
Частота кадров : 31,250 кадров/сек (1536 SPF)
Битовая глубина : 16 бит
Метод сжатия : С потерями
Размер потока : 131 Мбайт (18%)
Выравнивание : Разделение по промежуткам
Продолжительность промежутка : 40 мс. (1,00 видеокадр)
Время предзагрузки промежутка : 500 мс
pb.wtf



Скачать Тишина через торрент http://picplus.ru/img/1907/12/887c41ef.png Скачать фильм Тишина через торрент бесплантно в хорошем качестве Описание:Демобилизованный Сергей Вохминцев возвращается в Москву и поступает в институт. Неожиданно по клеветническому доносу соседа ... 10 10 2
Торрент: Зарегистрирован [2019-07-12 12:42] · скачан: 14 раз
Статус: √ проверено
Размер: 1.45 GB
Как cкачать? Как скачать Тишина через торрент | qTorrent

% Раздел Тема Автор DL S | L
Фильмы 2019-2020 [DVDrip, WEB-DLRip, HDrip] (DUB, MVO) [ 1.38 GB ] Звук тишины / The Sound of Silence [2019 WEB-DLRip] MVO bober100 Скачать
2 | 0
Фильмы (WEB-DL 720p, 1080p) [ 4.42 GB ] Звук тишины / The Sound of Silence [2019 WEB-DL 1080p] MVO bober100 Скачать
1 | 0
Фильмы (WEB-DL 720p, 1080p) [ 2.95 GB ] Звук тишины / The Sound of Silence [2019 WEB-DL 720p] MVO bober100 Скачать
1 | 0
Наши новые фильмы 2018-2019 [ 746 MB ] Крик тишины [2019 Военный WEB-DLRip] [ R5] bober100 Скачать
1 | 0
Наши новые фильмы 2018-2019 [ 1.46 GB ] Крик тишины [2019 Военный WEB-DLRip] [ R5] bober100 Скачать
1 | 0
Наши фильмы (HD, WEB-DL 720p, 1080p) [ 3.67 GB ] Крик тишины [2019 Военный WEB-DL 1080p] [ R5] bober100 Скачать
2 | 0
Наши новые фильмы 2018-2019 [ 2.1 GB ] Крик тишины [2019 Военный DVDRip-AVC] - ExKinoRay Enigma2010 Скачать
8 | 0

28-11-2019 20:33  

Отключить всю рекламу на сайте

    Дорогой пользователь! Огромная просьба, поблагодарите релизера, оцените раздачу и оставьте свои комментарий, если Вы скачали Тишина через торрент бесплатно! Внесите свою лепту в развитие PiratBit!
    Комментировать посты могут только пользователи прошедшие не сложную регистрацию
    Показать сообщения:    

    Тишина через торрент
    Скачать бесплатно Тишина
    Тишина скачать торрент
    Тишина смотреть онлайн
    Cкачать фильм Тишина бесплатно
    Тишина скачать торрент в хорошем качестве
    Тишина смотреть онлайн бесплатно в хорошем качестве


    Вы не можете начинать темы
    Вы не можете отвечать на сообщения
    Вы не можете редактировать свои сообщения
    Вы не можете удалять свои сообщения
    Вы не можете голосовать в опросах
    Вы не можете прикреплять файлы к сообщениям
    Вы можете скачивать файлы