2 сезон

iTunes

WEBRip

1

2 сезон

iTunes

1 сезон

1 сезон

RePack

30

Ultimate

ВАЖНО

ИГРА 18+

pack

RePack

MK11
pack

Легкие деньги

RePack

jed

RePack

fifa19

RePack

RDR2

RePack

NEED FOR SPEED™ PAYBACK

4 сезон

9 сезон

Бесстыжие 9 сезон

Все сериалы

все сериалы на PB.wtf

RePack

FAR CRY 5

Anonymous, доброе утро, мы не успеваем собрать деньги на оплату серверов за февраль, помогите нам пожалуйста в это трудное время. В качестве благодарности мы отключим Вам всю рекламу на сайте (укажите свой ник в строку Ваше имя)!

×
  
Magnet ссылка

Тишина (Владимир Басов) [1963, СССР, драма, DVDRip-AVC от AVP Studio] pb.wtf

Тишина через торрент pb.wtf

Раздают: 2 [ 0 KB/s ]
Размер: 1.82 GB | Добавлен: 1 год 7 мес. назад | Торрент скачан:27 раз
Скачать  

12-07-2019 12:43 Тишина Скачать торрент  

Тишина
Страна: СССР
Производство: Мосфильм

Жанр: драма
Год выпуска: 1963
Продолжительность: 01:35:21 + 01:41:14

Перевод: Не требуется
Cубтитры: нет
Оригинальная аудиодорожка: русский

Режиссер: Владимир Басов

В ролях:
Виталий Коняев, Георгий Мартынюк, Лариса Лужина, Наталья Величко, Владимир Емельянов, Николай Волков (старший), Лилия Гриценко, Сергей Плотников, Георгий Жжёнов, Владимир Земляникин, Виктор Ломакин, Геннадий Ненашев, Евгений Лазарев, Всеволод Сафонов, Михаил Ульянов, Лидия Смирнова, Иван Переверзев...
Об актёрах подробней

Описание:
Демобилизованный Сергей Вохминцев возвращается в Москву и поступает в институт. Неожиданно по клеветническому доносу соседа арестовывают его отца, а Сергея, как сына «врага народа», исключают из партии и института. Парень едет в Казахстан, работает на стройке. У него много верных друзей, и он верит в справедливость…

Источник: DVD9 R5
Качество видео: DVDRip-AVC
Формат видео: MKV

Видео: 720->787х384 (2,049:1), 25,000 fps, H264 ~ 1346 kbps avg, 0.195 bit/pixel
Аудио: 48 kHz, Dolby Digital AC3 2.0, 192 kbps

Раздача от:
Общее
Полное имя : Tishina.1963.DVDRip-AVC_[New-team]_by_AVP_Studio.mkv
Формат : Matroska
Версия формата : Version 2
Размер файла : 1,09 Гбайт
Продолжительность : 1 ч. 41 м.
Общий поток : 1540 Кбит/сек
Дата кодирования : UTC 2019-07-11 12:22:49
Программа кодирования : mkvmerge v6.1.0 ('Old Devil') built on Mar 4 2013 09:10:42
Библиотека кодирования : libebml v1.3.0 + libmatroska v1.4.0

Видео
Идентификатор : 1
Формат : AVC
Формат/Информация : Advanced Video Codec
Профиль формата : High@L4.1
Настройки формата : CABAC / 10 Ref Frames
Параметр CABAC формата : Да
Параметр RefFrames формата : 10 кадров
Идентификатор кодека : V_MPEG4/ISO/AVC
Продолжительность : 1 ч. 41 м.
Битрейт : 1346 Кбит/сек
Ширина : 720 пикселей
Высота : 384 пикселя
Соотношение сторон : 2,049
Соотношение сторон в оригинале : 2,050
Режим частоты кадров : Постоянный
Частота кадров : 25,000 кадров/сек
Цветовое пространство : YUV
Субдискретизация насыщенности : 4:2:0
Битовая глубина : 8 бит
Тип развёртки : Прогрессивная
Бит/(Пиксели*Кадры) : 0.195
Размер потока : 954 Мбайт (86%)
Библиотека кодирования : x264 core 157 r2932 303c484
Настройки программы : cabac=1 / ref=10 / deblock=1:-2:-1 / analyse=0x3:0x113 / me=umh / subme=10 / psy=1 / psy_rd=1.00:0.00 / mixed_ref=1 / me_range=32 / chroma_me=1 / trellis=2 / 8x8dct=1 / cqm=0 / deadzone=21,11 / fast_pskip=1 / chroma_qp_offset=-2 / threads=6 / lookahead_threads=1 / sliced_threads=0 / nr=0 / decimate=0 / interlaced=0 / bluray_compat=0 / constrained_intra=0 / bframes=8 / b_pyramid=2 / b_adapt=2 / b_bias=0 / direct=3 / weightb=1 / open_gop=0 / weightp=2 / keyint=250 / keyint_min=25 / scenecut=40 / intra_refresh=0 / rc=2pass / mbtree=0 / bitrate=1346 / ratetol=1.0 / qcomp=0.60 / qpmin=0 / qpmax=69 / qpstep=4 / cplxblur=20.0 / qblur=0.5 / ip_ratio=1.40 / pb_ratio=1.30 / aq=1:1.00
Default : Да
Forced : Нет

Аудио
Идентификатор : 2
Формат : AC-3
Формат/Информация : Audio Coding 3
Коммерческое название : Dolby Digital
Идентификатор кодека : A_AC3
Продолжительность : 1 ч. 41 м.
Вид битрейта : Постоянный
Битрейт : 192 Кбит/сек
Каналы : 2 канала
ChannelLayout : L R
Частота : 48,0 КГц
Частота кадров : 31,250 кадров/сек (1536 SPF)
Битовая глубина : 16 бит
Метод сжатия : С потерями
Размер потока : 139 Мбайт (12%)
Default : Да
Forced : Нет
pb.wtf



Скачать Тишина через торрент http://picplus.ru/img/1907/12/887c41ef.png Скачать фильм Тишина через торрент бесплантно в хорошем качестве Описание:Демобилизованный Сергей Вохминцев возвращается в Москву и поступает в институт. Неожиданно по клеветническому доносу соседа ... 10 10 2
Торрент: Зарегистрирован [2019-07-12 12:43] · скачан: 27 раз
Статус: √ проверено
Размер: 1.82 GB
Как cкачать? Как скачать Тишина через торрент | UTorrent

% Раздел Тема Автор DL S | L
T Фильмы 2010 [ 1.46 GB ] Тишина / Das letzte Schweigen / The Silence [2010 HDRip] [VO] killermax2013 Скачать
1 | 0
Фильмы 2019-2020 [DVDrip, WEB-DLRip, HDrip] (DUB, MVO) [ 1.83 GB ] Залив тишины / The Bay of Silence [2020 WEB-DLRip-AVC] от MediaBit Lithuania Скачать
1 | 0
Фильмы (WEB-DL 720p, 1080p) [ 3.78 GB ] Залив тишины / The Bay of Silence [2020 WEB-DL 1080p] bober100 Скачать
1 | 0
Фильмы 2019-2020 [DVDrip, WEB-DLRip, HDrip] (DUB, MVO) [ 1.46 GB ] Залив тишины / The Bay of Silence [2020 WEB-DLRip] bober100 Скачать
2 | 0
Фильмы 2019-2020 [DVDrip, WEB-DLRip, HDrip] (DUB, MVO) [ 1.38 GB ] Звук тишины / The Sound of Silence [2019 WEB-DLRip] MVO bober100 Скачать
1 | 0
Фильмы (WEB-DL 720p, 1080p) [ 4.42 GB ] Звук тишины / The Sound of Silence [2019 WEB-DL 1080p] MVO bober100 Скачать
2 | 0
Фильмы (WEB-DL 720p, 1080p) [ 2.95 GB ] Звук тишины / The Sound of Silence [2019 WEB-DL 720p] MVO bober100 Скачать
1 | 0

28-11-2019 20:33  

Отключить всю рекламу на сайте

    Дорогой пользователь! Огромная просьба, поблагодарите релизера, оцените раздачу и оставьте свои комментарий, если Вы скачали Тишина через торрент бесплатно! Внесите свою лепту в развитие PiratBit!
    Комментировать посты могут только пользователи прошедшие не сложную регистрацию
    Показать сообщения:    

    Тишина через торрент
    Скачать бесплатно Тишина
    Тишина скачать торрент
    Тишина смотреть онлайн
    Cкачать фильм Тишина бесплатно
    Тишина скачать торрент в хорошем качестве
    Тишина смотреть онлайн бесплатно в хорошем качестве


    Вы не можете начинать темы
    Вы не можете отвечать на сообщения
    Вы не можете редактировать свои сообщения
    Вы не можете удалять свои сообщения
    Вы не можете голосовать в опросах
    Вы не можете прикреплять файлы к сообщениям
    Вы можете скачивать файлы