Ссылка на приватное зеркало всего за 1$. Внимание количество ограничено!!!

iTunes

1+1

iTunes

мы

WEB-DL

1

iTunes

Чернобыль

iTunes

Ральф против интернета

Лицензия

ПШазам

Лицензия

Оно 2

Лицензия

30
pack

Вам бонус

ВАЖНО

!!Акция!!

Alien_RageХит недели

RePack

Resident Evil 21

ИГРА 18+

pack

RePack

jed

!!Акция!!

Alien_Rage

RePack

fifa19

RePack

Assassins Creed: Odyssey

RePack

NEED FOR SPEED™ PAYBACK

3 сезон

9 сезон

Бесстыжие 9 сезон

Все сериалы

все сериалы на PB.wtf

RePack

FAR CRY 5
Ребята, катастрофически не хватает 1900р. для оплаты серверов за Октябрь (всвязи с блокировками трафик упал в 3 раза), 1-2р., выручайте.
  

Алита: Боевой ангел / Alita: Battle Angel (Роберт Родригес / Robert Rodriguez) [2019, фантастика, боевик, триллер, WEB-DLRip-AVC] [Open Matte] [Dub] pb.wtf

Алита: Боевой ангел через торрент pb.wtf

Раздают: 23 [ 0 KB/s ] Качают: 1 [ 0 KB/s ]
Размер: 1.49 GB | Добавлен: 5 мес. 1 д. назад | Торрент скачан:481 раз
Скачать  

12-07-2019 13:01 Алита: Боевой ангел Скачать торрент  

Алита: Боевой ангел
Alita: Battle Angel

«Ангел падёт, и восстанет воин»

Страна: США
Жанр: фантастика, боевик, триллер, приключения
Год выпуска: 2019
Продолжительность: 02:02:04

Перевод: Профессиональный (полное дублирование) [iTunes]
Субтитры: русские (форсированные, полные)
Оригинальная аудиодорожка: нет

Режиссер: Роберт Родригес / Robert Rodriguez

В ролях: Роза Салазар, Кристоф Вальц, Дженнифер Коннелли, Махершала Али, Эд Скрейн, Джеки Эрл Хейли, Киан Джонсон, Хорхе Лендеборг мл., Лана Кондор, Идара Виктор

Описание: Действие фильма происходит через 300 лет после Великой войны в XXVI веке. Доктор Идо находит останки женщины-киборга. После починки киборг ничего не помнит, но обнаруживает, что в состоянии пользоваться боевыми приемами киборгов. Начинаются поиски утерянных воспоминаний.



Релиз:

Автор рипа: stalkerok

Сэмпл

Качество видео: WEB-DLRip-AVC | Исходник: Alita.Battle.Angel.2019.V2.1080p.HDRip.X264-EVO
Формат видео: MKV
Видео кодек: AVC
Аудио кодек: AC3
Видео: AVC, 1363 Кбит/сек, 864x486 (16:9), 23,976 кадр/сек
Аудио: AC3, 384 Кбит/сек, 48 КГц, 5.1 - русский
Навигация по главам: есть
WEB-DL Open Matte 16:9 (1.78:1)


Blu-ray Widescreen 2.40:1
---[Information] [12.07.2019 15:11:51] x264 [info]: frame I:1675 Avg QP:19.04 size: 44304
---[Information] [12.07.2019 15:11:51] x264 [info]: frame P:41025 Avg QP:21.05 size: 15147
---[Information] [12.07.2019 15:11:51] x264 [info]: frame B:132924 Avg QP:23.73 size: 4161

General
Unique ID : 245166045300913316238052154468940284957 (0xB8714346CEFCCF1F88C2DD4F501A841D)
Complete name : C:\temp\Alita Battle Angel\Alita.Battle.Angel.2019.WEB-DLRip.x264.Rus.stalkerok.New-Team.mkv
Format : Matroska
Format version : Version 4 / Version 2
File size : 1.49 GiB
Duration : 2 h 2 min
Overall bit rate : 1 750 kb/s
Movie name : Alita: Battle Angel (2019) | Rip by stalkerok
Encoded date : UTC 2019-07-12 12:42:11
Writing application : mkvmerge v33.1.0 ('Primrose') 64-bit
Writing library : libebml v1.3.7 + libmatroska v1.5.0
Cover : Yes
Attachments : cover.png

Video
ID : 1
Format : AVC
Format/Info : Advanced Video Codec
Format profile : High@L4.1
Format settings, CABAC : Yes
Format settings, ReFrames : 12 frames
Codec ID : V_MPEG4/ISO/AVC
Duration : 2 h 2 min
Bit rate : 1 364 kb/s
Width : 864 pixels
Height : 486 pixels
Display aspect ratio : 16:9
Frame rate mode : Constant
Frame rate : 23.976 FPS
Color space : YUV
Chroma subsampling : 4:2:0
Bit depth : 8 bits
Scan type : Progressive
Bits/(Pixel*Frame) : 0.135
Stream size : 1.16 GiB (78%)
Title : Alita: Battle Angel (2019) | Rip by stalkerok
Writing library : x264 core 157 r2945 72db437
Encoding settings : cabac=1 / ref=12 / deblock=1:-3:-2 / analyse=0x3:0x133 / me=umh / subme=11 / psy=1 / psy_rd=1.00:0.00 / mixed_ref=1 / me_range=32 / chroma_me=1 / trellis=2 / 8x8dct=1 / cqm=0 / deadzone=21,11 / fast_pskip=0 / chroma_qp_offset=-2 / threads=12 / lookahead_threads=3 / sliced_threads=0 / nr=0 / decimate=1 / interlaced=0 / bluray_compat=0 / constrained_intra=0 / bframes=14 / b_pyramid=2 / b_adapt=2 / b_bias=0 / direct=3 / weightb=1 / open_gop=0 / weightp=2 / keyint=240 / keyint_min=23 / scenecut=40 / intra_refresh=0 / rc_lookahead=60 / rc=crf / mbtree=0 / crf=20.1 / qcomp=0.65 / qpmin=0 / qpmax=69 / qpstep=4 / vbv_maxrate=50000 / vbv_bufsize=62500 / crf_max=0.0 / nal_hrd=none / filler=0 / ip_ratio=1.40 / pb_ratio=1.30 / aq=3:0.90 / zones=168206,175623,q=34
Default : Yes
Forced : No

Audio
ID : 2
Format : AC-3
Format/Info : Audio Coding 3
Mode extension : CM (complete main)
Format settings, Endianness : Big
Codec ID : A_AC3
Duration : 2 h 1 min
Bit rate mode : Constant
Bit rate : 384 kb/s
Channel(s) : 6 channels
Channel positions : Front: L C R, Side: L R, LFE
Sampling rate : 48.0 kHz
Frame rate : 31.250 FPS (1536 spf)
Compression mode : Lossy
Stream size : 335 MiB (22%)
Title : Dub
Language : Russian
Default : Yes
Forced : No

Text #1
ID : 3
Format : UTF-8
Codec ID : S_TEXT/UTF8
Codec ID/Info : UTF-8 Plain Text
Duration : 2 s 544 ms
Bit rate : 251 b/s
Count of elements : 1
Stream size : 80.0 Bytes (0%)
Title : Forced
Language : Russian
Default : Yes
Forced : No

Text #2
ID : 4
Format : UTF-8
Codec ID : S_TEXT/UTF8
Codec ID/Info : UTF-8 Plain Text
Duration : 1 h 56 min
Bit rate : 64 b/s
Count of elements : 1318
Stream size : 55.4 KiB (0%)
Title : Full (Focs)
Language : Russian
Default : No
Forced : No

Menu
00:00:00.000 : en:Scene 1
00:00:27.000 : en:Scene 2
00:05:23.000 : en:Scene 3
00:13:08.000 : en:Scene 4
00:18:06.000 : en:Scene 5
00:23:00.000 : en:Scene 6
00:25:40.000 : en:Scene 7
00:33:30.000 : en:Scene 8
00:36:34.000 : en:Scene 9
00:37:47.000 : en:Scene 10
00:38:32.000 : en:Scene 11
00:41:07.000 : en:Scene 12
00:45:59.000 : en:Scene 13
00:48:32.000 : en:Scene 14
00:52:58.000 : en:Scene 15
00:55:16.000 : en:Scene 16
01:02:58.000 : en:Scene 17
01:10:24.000 : en:Scene 18
01:16:36.000 : en:Scene 19
01:18:53.000 : en:Scene 20
01:22:50.000 : en:Scene 21
01:24:57.000 : en:Scene 22
01:28:26.000 : en:Scene 23
01:36:10.000 : en:Scene 24
01:38:42.000 : en:Scene 25
01:43:29.000 : en:Scene 26
01:44:46.000 : en:Scene 27
01:51:45.000 : en:Scene 28
01:54:31.000 : en:Scene 29
01:56:53.000 : en:Scene 30
01:56:56.000 : en:Scene 31
pb.wtf



Скачать Алита: Боевой ангел через торрент http://i6.imageban.ru/out/2017/09/18/2ff75c0c358795c5946784cc1680714d.png Скачать фильм Алита: Боевой ангел через торрент бесплантно в хорошем качестве Описание: Действие фильма происходит через 300 лет после Великой войны в XXVI веке. Доктор Идо находит останки женщины-киборга. После ... 9.8 10 6
Info! Золотая раздача, скачанное не засчитывается.
Торрент: Зарегистрирован [2019-07-12 13:01] · скачан: 481 раз
Статус: √ проверено
Размер: 1.49 GB
Как cкачать? Как скачать Алита: Боевой ангел через торрент | qTorrent

% Раздел Тема Автор DL S | L
Фильмы 2019 [DVDrip, WEB-DLRip, HDrip] (DUB, MVO) [ 2.86 GB ] Алита: Боевой ангел / Alita: Battle Angel [2019 BDRip-AVC] [Локализованная версия] DUB [ BD CEE] - ExKinoRay Enigma2010 Скачать
48 | 2
Фильмы 2019 [DVDrip, WEB-DLRip, HDrip] (DUB, MVO) [ 2.18 GB ] Алита: Боевой ангел / Alita: Battle Angel [2019 BDRip] - [] Twi7ter Скачать
132 | 1
Фильмы 2019 [DVDrip, WEB-DLRip, HDrip] (DUB, MVO) [ 1.46 GB ] Алита: Боевой ангел / Alita: Battle Angel [2019 BDRip] [Локализованная версия] DUB [ BD CEE] bober100 Скачать
7 | 0
Ultra HD (UHD: 2K, 4K, 8K) — видео сверхвысокой чёткости [ 37.56 GB ] Алита: Боевой ангел / Alita: Battle Angel [2019 UHD BDRemux 2160p] [Dolby Vision TV] DUB + 2xMVO sheker187 Скачать
4 | 0
Фильмы (HD 720p, 1080p) (48-60 fps) [ 8.55 GB ] Алита: Боевой ангел / Alita: Battle Angel [2019 BDRip 1080p 60fps Dub MVO Original] [Локализованная версия] Tiberiumsun69 Скачать
124 | 8
Ultra HD (UHD: 2K, 4K, 8K) — видео сверхвысокой чёткости [ 45.58 GB ] Алита: Боевой ангел / Alita: Battle Angel [2019 UHD BDRemux 2160p] DUB [] [HDR10 sheker187 Скачать
2 | 0
Фильмы [HD 720p, 1080p] (Хороший звук DUB, MVO) [ 8.75 GB ] Алита: Боевой ангел / Alita: Battle Angel [2019 BDRip 1080p] DUB [] 2xMVO [CВ Студия HDRezka Studio] bober100 Скачать
4 | 0

28-11-2019 20:33  

Отключить всю рекламу на сайте

    Дорогой пользователь! Огромная просьба, поблагодарите релизера, оцените раздачу и оставьте свои комментарий, если Вы скачали Алита: Боевой ангел через торрент бесплатно! Внесите свою лепту в развитие PiratBit!
    Комментировать посты могут только пользователи прошедшие не сложную регистрацию
    Показать сообщения:    

    Алита: Боевой ангел через торрент
    Скачать бесплатно Алита: Боевой ангел
    Алита: Боевой ангел скачать торрент
    Алита: Боевой ангел смотреть онлайн
    Cкачать фильм Алита: Боевой ангел бесплатно
    Алита: Боевой ангел скачать торрент в хорошем качестве
    Алита: Боевой ангел смотреть онлайн бесплатно в хорошем качестве


    Вы не можете начинать темы
    Вы не можете отвечать на сообщения
    Вы не можете редактировать свои сообщения
    Вы не можете удалять свои сообщения
    Вы не можете голосовать в опросах
    Вы не можете прикреплять файлы к сообщениям
    Вы можете скачивать файлы