Ссылка на приватное зеркало нашего сайта всего за 1$. Внимание количество ограничено!!!

2 сезон

iTunes

1 сезон

1

2 сезон

2 сезон

iTunes

1 сезон

RePack

30

Ultimate

ВАЖНО

ИГРА 18+

pack

RePack

MK11
pack

Забери бонус

RePack

jed

!!Акция!!

Alien_Rage

RePack

fifa19

RePack

Assassins Creed: Odyssey

RePack

NEED FOR SPEED™ PAYBACK

4 сезон

9 сезон

Бесстыжие 9 сезон

Все сериалы

все сериалы на PB.wtf

RePack

FAR CRY 5
  

Джессика Джонс / Jessica Jones / Сезон: 3 / Серии: 1-13 из 13 (Ута Бризвитц, Розмари Родригез, Саймон Селлан Джоунс) [2019, фантастика, боевик, триллер, драма, криминал, UHD WEB-DL 2160p] MVO [TVShows] pb.wtf

Джессика Джонс через торрент pb.wtf

Размер: 77.62 GB | Добавлен: 1 год 4 мес. назад | Торрент скачан:1 раз
Скачать  

12-07-2019 13:57 Джессика Джонс Скачать торрент  

Джессика Джонс / Jessica Jones««It's time the world knew her name»»

Год выпуска: 2019
Страна: США
Жанр: фантастика, боевик, драма, криминал
Продолжительность: 13 x ~ 00:55:00
Перевод: Профессиональный многоголосый | TVShows
Субтитры: Русские, Английские
Реклама: Отсутствует
Режиссер: Ута Бризвитц, Розмари Родригез, Саймон Селлан Джоунс
В ролях:

Кристен Риттер (Jessica Jones), Рэйчел Тейлор (Trish Walker), Ика Дэрвилл (Malcolm Ducasse), Кэрри-Энн Мосс (Jeri Hogarth), Дэвид Теннант (Kilgrave), Джанет Мактир (Alisa Jones), Дж.Р. Рамирез (Oscar Arocho), Уил Трэвэл (Will Simpson), Леа Гибсон (Inez Green), Сьюзи Абромейт (Pam), Ребекка Де Морнэй (Dorothy Walker), Майк Колтер (Luke Cage)
Описание:
Сериал рассказывает о приключениях молодой девушки Джессики Джонс, наделённой феноменальными способностями. В недалёком прошлом, обладая сверхчеловеческими возможностями и умением летать, Джессика приняла решение использовать их во благо людей, став на защиту Нью-Йорка. Одна фатальная встреча с загадочным злодеем Зебедайей Килгрейвом, известным как Пурпурный Человек, так же обладающим могущественной силой, повлекла за собой ряд трагических событий, навсегда изменивших жизнь нашей героини, оставив неизгладимый след в её памяти. Вскоре, оправившись от полученного шока, стараясь забыть кошмарное прошлое, девушка открывает частное детективное агентство. Выполняя несложные для неё поручения клиентов, пытаясь отвлечься от преследующих её ужасных воспоминаний, Джессика старается втянуться в привычный мир суетливой жизни, проводя долгие вечера за барной стойкой, заливая душевные муки большим количеством алкоголя. Но как бы девушка ни старалась, прошлое вновь напоминает о себе: чреда загадочных событий, произошедших в городе, даёт нашей героине понять – человек, надменно разрушивший её жизнь, вернулся.
Рейтинг:

Качество: UHD WEB-DL 2160p
Формат: MKV
Видео: HEVC HDR, ~ 15.9 Mбит/с, 3840x2160, 23.976 кадр/с, 10 Бит
Аудио: E-AC3, 6 ch, 448 Kbps - Русский многоголосый закадровый | TVShows
Аудио: E-AC3+Atmos, 6 ch, 768 Kbps - Английский (Оригинал)

01. Идеальный бургер / A.K.A The Perfect Burger
02. Или пожалуйста / A.K.A You're Welcome
03. Или у меня нет селезенки / A.K.A I Have No Spleen
04. Или cлужба по работе с клиентами готова / A.K.A Customer Service is Standing By
05. Или мне жаль / A.K.A I Wish
06. Или маска сожаления / A.K.A Sorry Face
07. Или двойной полу-уоппинджер / A.K.A The Double Half-Wappinger
08. Или дружи с камерой / A.K.A Camera Friendly
09. Или сегодня я кое-что сделала / A.K.A I Did Something Today
10. Или геройские штанишки / A.K.A Hero Pants
11. Или Адская Кошка / A.K.A Hellcat
12. Или много червей / A.K.A A Lotta Worms
13. Или все / AKA.Everything
Общее
Уникальный идентификатор : 240101745230038927085542489121649223148 (0xB4A1EA0165A29723A3EC42C7ADFE65EC)
Полное имя : E:\Marvels.Jessica.Jones.S03.2019.2160p.WEB-DL.x265.10bit.HDR.Master5\ Marvels.Jessica.Jones.S03E01.AKA.The.Perfect.Burger.2019.2160p.WEB-DL.x265.10bit.HDR.Master5.mkv
Формат : Matroska
Версия формата : Version 4 / Version 2
Размер файла : 6,08 Гбайт
Продолжительность : 51 м. 55 с.
Общий поток : 16,8 Мбит/сек
Название фильма : Marvels.Jessica.Jones.S03E01.AKA.The.Perfect.Burger.2019.2160p.WEB-DL.x265.10bit.HDR.Master5
Дата кодирования : UTC 2019-07-12 07:05:41
Программа кодирования : mkvmerge v7.9.0 ('Birds') 64bit
Библиотека кодирования : libebml v1.3.1 + libmatroska v1.4.2

Видео
Идентификатор : 1
Формат : HEVC
Формат/Информация : High Efficiency Video Coding
Коммерческое название : HDR10
Профиль формата : Main 10@L5@Main
Идентификатор кодека : V_MPEGH/ISO/HEVC
Продолжительность : 51 м. 4 с.
Битрейт : 15,8 Мбит/сек
Ширина : 3840 пикселей
Высота : 2160 пикселей
Соотношение сторон : 16:9
Режим частоты кадров : Постоянный
Частота кадров : 23,976 (24000/1001) кадра/сек
Цветовое пространство : YUV
Субдискретизация насыщенности : 4:2:0 (Type 2)
Битовая глубина : 10 бит
Бит/(Пиксели*Кадры) : 0.079
Размер потока : 5,64 Гбайт (93%)
Заголовок : Marvels.Jessica.Jones.S03E01.AKA.The.Perfect.Burger.2019.2160p.WEB-DL.x265.10bit.HDR.Master5
Default : Да
Forced : Нет
Цветовой диапазон : Limited
Основные цвета : BT.2020
Характеристики трансфера : PQ
Коэффициенты матрицы : BT.2020 non-constant
MasteringDisplay_ColorPrimaries : Display P3
MasteringDisplay_Luminance : min: 0.0050 cd/m2, max: 4000 cd/m2
MaxCLL : 10000 cd/m2
MaxFALL : 202 cd/m2

Аудио #1
Идентификатор : 2
Формат : AC-3
Формат/Информация : Audio Coding 3
Идентификатор кодека : A_AC3
Продолжительность : 51 м. 55 с.
Вид битрейта : Постоянный
Битрейт : 448 Кбит/сек
Каналы : 6 каналов
Расположение каналов : Front: L C R, Side: L R, LFE
Частота : 48,0 КГц
Частота кадров : 31,250 кадров/сек (1536 SPF)
Битовая глубина : 16 бит
Метод сжатия : С потерями
Размер потока : 166 Мбайт (3%)
Заголовок : TVShows
Язык : Russian
ServiceKind/String : Complete Main
Default : Да
Forced : Да

Аудио #2
Идентификатор : 3
Формат : E-AC-3
Формат/Информация : Enhanced Audio Coding 3
Профиль формата : E-AC-3+Atmos / E-AC-3
Идентификатор кодека : A_EAC3
Продолжительность : 51 м. 55 с.
Вид битрейта : Постоянный
Битрейт : 768 Кбит/сек
Каналы : 15 objects / 6 каналов
Расположение каналов : 15 objects / Front: L C R, Side: L R, LFE
Частота : 48,0 КГц
Частота кадров : 187,500 кадров/сек (256 SPF)
Метод сжатия : С потерями
Размер потока : 285 Мбайт (5%)
Язык : English
ServiceKind/String : Complete Main
Default : Нет
Forced : Нет

Текст #1
Идентификатор : 4
Формат : UTF-8
Идентификатор кодека : S_TEXT/UTF8
Идентификатор кодека/Информация : UTF-8 Plain Text
Продолжительность : 48 м. 14 с.
Битрейт : 59 бит/сек
ElementCount : 604
Размер потока : 21,1 Кбайт (0%)
Язык : English
Default : Нет
Forced : Нет

Текст #2
Идентификатор : 5
Формат : UTF-8
Идентификатор кодека : S_TEXT/UTF8
Идентификатор кодека/Информация : UTF-8 Plain Text
Продолжительность : 49 м. 37 с.
Битрейт : 64 бит/сек
ElementCount : 670
Размер потока : 23,6 Кбайт (0%)
Заголовок : SDH
Язык : English
Default : Нет
Forced : Нет

Текст #3
Идентификатор : 6
Формат : UTF-8
Идентификатор кодека : S_TEXT/UTF8
Идентификатор кодека/Информация : UTF-8 Plain Text
Продолжительность : 49 м. 30 с.
Битрейт : 93 бит/сек
ElementCount : 618
Размер потока : 33,9 Кбайт (0%)
Язык : Russian
Default : Нет
Forced : Нет
pb.wtf



Скачать Джессика Джонс через торрент https://c.radikal.ru/c20/1907/2e/5958694fff12.png Скачать фильм Джессика Джонс через торрент бесплантно в хорошем качестве Описание: Сериал рассказывает о приключениях молодой девушки Джессики Джонс, наделённой феноменальными способностями. В недалёком прошлом, ... 10 10 2
Торрент: Зарегистрирован [2019-07-12 13:57] · скачан: 1 раз
Статус: √ проверено
Размер: 77.62 GB
Как cкачать? Как скачать Джессика Джонс через торрент | qTorrent

% Раздел Тема Автор DL S | L
Зарубежные сериалы [ 41.21 GB ] Джессика Джонс / Marvel’s Jessica Jones / Сезон: 3 / Серии: 1-13 из 13 [2019 WEBRip 720p] MVO [NewStudio] bober100 Скачать
1 | 0
Зарубежные сериалы [ 86.24 GB ] Джессика Джонс / Marvel’s Jessica Jones / Сезон: 3 / Серии: 1-13 из 13 [2019 WEBRip 1080p] MVO [NewStudio] bober100 Скачать
1 | 0
Зарубежные сериалы [ 78.51 GB ] Джессика Джонс / Jessica Jones / Сезон: 3 / Серии: 1-13 из 13 [2019 UHD WEB-DL 2160p] MVO [LostFilm] sheker187 Скачать
1 | 0
Зарубежные сериалы [ 9.24 GB ] Джессика Джонс / Jessica Jones / Сезон: 3 / Серии: 1-13 из 13 [2019 WEBRip] MVO [TVShows] bober100 Скачать
1 | 0
Зарубежные сериалы [ 26.52 GB ] Джессика Джонс / Jessica Jones / Сезон: 3 / Серии: 1-13 из 13 [2019 WEB-DL 1080p] [MVO] killermax2013 Скачать
1 | 0
Зарубежные сериалы [ 7.79 GB ] Джессика Джонс / Jessica Jones / Сезон: 3 / Серии: 1-13 из 13 [2019 WEBRip] [MVO] killermax2013 Скачать
1 | 0
Зарубежные сериалы [ 12.82 GB ] Джессика Джонс / Jessica Jones / Сезон: 3 / Серии: 1-13 из 13 [2019 WEB 720p] MVO [LostFilm] bober100 Скачать
1 | 0

28-11-2019 20:33  

Отключить всю рекламу на сайте

    Дорогой пользователь! Огромная просьба, поблагодарите релизера, оцените раздачу и оставьте свои комментарий, если Вы скачали Джессика Джонс через торрент бесплатно! Внесите свою лепту в развитие PiratBit!
    Комментировать посты могут только пользователи прошедшие не сложную регистрацию
    Показать сообщения:    

    Джессика Джонс через торрент
    Скачать бесплатно Джессика Джонс
    Джессика Джонс скачать торрент
    Джессика Джонс смотреть онлайн
    Cкачать фильм Джессика Джонс бесплатно
    Джессика Джонс скачать торрент в хорошем качестве
    Джессика Джонс смотреть онлайн бесплатно в хорошем качестве


    Вы не можете начинать темы
    Вы не можете отвечать на сообщения
    Вы не можете редактировать свои сообщения
    Вы не можете удалять свои сообщения
    Вы не можете голосовать в опросах
    Вы не можете прикреплять файлы к сообщениям
    Вы можете скачивать файлы