Ссылка на приватное зеркало нашего сайта всего за 1$. Внимание количество ограничено!!!

2 сезон

iTunes

1 сезон

1

2 сезон

2 сезон

iTunes

1 сезон

RePack

30

Ultimate

ВАЖНО

ИГРА 18+

pack

RePack

MK11
pack

Забери бонус

RePack

jed

!!Акция!!

Alien_Rage

RePack

fifa19

RePack

Assassins Creed: Odyssey

RePack

NEED FOR SPEED™ PAYBACK

4 сезон

9 сезон

Бесстыжие 9 сезон

Все сериалы

все сериалы на PB.wtf

RePack

FAR CRY 5
  

Английский цирюльник / Blow Dry (Пэдди Бретнэк) [2001 г., комедия, мелодрама, WEB-DLRip 720p] DVO + AVO - KORSAR pb.wtf

Английский цирюльник через торрент pb.wtf

Размер: 3.35 GB | Добавлен: 1 год 4 мес. назад | Торрент скачан:45 раз
Скачать  

12-07-2019 15:56 Английский цирюльник Скачать торрент  

Английский цирюльник / Blow Dry
Год выпуска: 2001
Страна: США
Жанр: Комедия, мелодрама
Продолжительность: 01:29:36
Перевод: Профессиональный двухголосый, авторский одноголосый
Субтитры: Русские, английские
Режиссёр: Пэдди Бретнэк
В ролях: Наташа Ричардсон, Алан Рикман, Рэйчел Гриффитс, Рэйчел Ли Кук, Джош Хартнетт, Билл Найи, Уоррен Кларк, Розмари Харрис, Хью Бонневилль, Хайди Клум
Описание: Мелодичная трескотня бесперебойно работающих ножниц в руках волшебника-парикмахера способна совершить чудо. Искусство и фантазия маэстро преображает простую модель в дивную фею. Одно из уникальных, незаменимых и, увы, недолговечных произведений принесет своему творцу титул лучшего цирюльника и долгожданную славу. Сеть выдающихся салонов красоты сходится на конкурсе с единственным желанием — доказать свое превосходство и завоевать первую награду. Казалось бы, подлости, лицемерию и предательству нет места в этом мире красоты. Но, увы, бешеная конкуренция породила дикую ненависть в сердцах собравшихся. Тщеславие и безжалостная гонка за титулами станут жестким испытанием для крепкой дружбы и настоящей любви.

rating

Качество: WEB-DLRip 720p
Формат: MKV
Видео: MPEG-4 AVC, 4515 Кбит/сек, 1280x720, 23.976 кадра/сек
Аудио 1: AC3, 2 ch, 192 Кбит/сек | Русский, профессиональный (двухголосый закадровый)
Аудио 2: AC3, 2 ch, 192 Кбит/сек | Русский, авторский (одноголосый закадровый) Юрий Сербин
Аудио 3: AC3, 6 ch, 448 Кбит/сек | Английский, оригинал

Релиз от:


  • x264 [info]: frame I:999 Avg QP:13.72 size:127018
  • x264 [info]: frame P:28011 Avg QP:16.64 size: 50183
  • x264 [info]: frame B:99885 Avg QP:18.34 size: 15034

    ===========================================

    Общее
    Уникальный идентификатор : 186191941840174644987742833200187422909 (0x8C13437C8EF15D9EBEBFB4C67795B8BD)
    Полное имя : Английский.цирюльник.2001.WEB-DLRip.720p.KORSAR.mkv
    Формат : Matroska
    Версия формата : Version 2
    Размер файла : 3,35 Гбайт
    Продолжительность : 1 ч. 29 м.
    Общий поток : 5350 Кбит/сек
    Дата кодирования : UTC 2018-03-08 09:26:16
    Программа кодирования : mkvmerge v5.8.0 ('No Sleep / Pillow') built on Sep 2 2012 15:37:04
    Библиотека кодирования : libebml v1.2.3 + libmatroska v1.3.0

    Видео
    Идентификатор : 1
    Формат : AVC
    Формат/Информация : Advanced Video Codec
    Профиль формата : High@L4.1
    Параметр CABAC формата : Да
    Параметр RefFrames формата : 9 кадров
    Идентификатор кодека : V_MPEG4/ISO/AVC
    Продолжительность : 1 ч. 29 м.
    Битрейт : 4515 Кбит/сек
    Ширина : 1280 пикселей
    Высота : 720 пикселей
    Соотношение сторон : 16:9
    Режим частоты кадров : Постоянный
    Частота кадров : 23,976 (24000/1001) кадра/сек
    Цветовое пространство : YUV
    Субдискретизация насыщенности : 4:2:0
    Битовая глубина : 8 бит
    Тип развёртки : Прогрессивная
    Бит/(Пиксели*Кадры) : 0.204
    Размер потока : 2,76 Гбайт (82%)
    Заголовок : RIP | MZMA
    Библиотека кодирования : x264 core 152 r2851kMod ba24899
    Настройки программы : cabac=1 / ref=9 / deblock=1:-3:-3 / analyse=0x3:0x113 / me=umh / subme=11 / psy=1 / fade_compensate=0.00 / psy_rd=1.00:0.00 / mixed_ref=1 / me_range=64 / chroma_me=1 / trellis=2 / 8x8dct=1 / cqm=0 / deadzone=21,11 / fast_pskip=0 / chroma_qp_offset=-2 / threads=6 / lookahead_threads=1 / sliced_threads=0 / nr=0 / decimate=0 / interlaced=0 / bluray_compat=0 / constrained_intra=0 / bframes=16 / b_pyramid=2 / b_adapt=2 / b_bias=0 / direct=3 / weightb=1 / open_gop=0 / weightp=2 / keyint=240 / keyint_min=23 / scenecut=40 / intra_refresh=0 / rc_lookahead=40 / rc=2pass / mbtree=0 / bitrate=4515 / ratetol=1.0 / qcomp=0.60 / qpmin=0 / qpmax=69 / qpstep=4 / cplxblur=20.0 / qblur=0.5 / vbv_maxrate=50000 / vbv_bufsize=62500 / nal_hrd=none / filler=0 / ip_ratio=1.40 / pb_ratio=1.30 / aq=3:0.90
    Язык : English
    Default : Да
    Forced : Нет
    Цветовой диапазон : Limited
    Основные цвета : BT.709
    Характеристики трансфера : BT.709
    Коэффициенты матрицы : BT.709

    Аудио #1
    Идентификатор : 2
    Формат : AC-3
    Формат/Информация : Audio Coding 3
    Параметр Endianness формата : Big
    Идентификатор кодека : A_AC3
    Продолжительность : 1 ч. 29 м.
    Вид битрейта : Постоянный
    Битрейт : 192 Кбит/сек
    Каналы : 2 канала
    Расположение каналов : Front: L R
    Частота : 48,0 КГц
    Частота кадров : 31,250 кадров/сек (1536 SPF)
    Битовая глубина : 16 бит
    Метод сжатия : С потерями
    Размер потока : 123 Мбайт (4%)
    Заголовок : DVO
    Язык : Russian
    По умолчанию : Да
    Принудительно : Нет

    Аудио #2
    Идентификатор : 3
    Формат : AC-3
    Формат/Информация : Audio Coding 3
    Режим : Dolby Digital
    Параметр Endianness формата : Big
    Идентификатор кодека : A_AC3
    Продолжительность : 1 ч. 29 м.
    Вид битрейта : Постоянный
    Битрейт : 192 Кбит/сек
    Каналы : 2 канала
    Расположение каналов : Front: L R
    Частота : 48,0 КГц
    Частота кадров : 31,250 кадров/сек (1536 SPF)
    Битовая глубина : 16 бит
    Метод сжатия : С потерями
    Размер потока : 123 Мбайт (4%)
    Заголовок : AVO | Ю. Сербин
    Язык : Russian
    По умолчанию : Нет
    Принудительно : Нет

    Аудио #3
    Идентификатор : 4
    Формат : AC-3
    Формат/Информация : Audio Coding 3
    Параметр Endianness формата : Big
    Идентификатор кодека : A_AC3
    Продолжительность : 1 ч. 29 м.
    Вид битрейта : Постоянный
    Битрейт : 448 Кбит/сек
    Каналы : 6 каналов
    Расположение каналов : Front: L C R, Side: L R, LFE
    Частота : 48,0 КГц
    Частота кадров : 31,250 кадров/сек (1536 SPF)
    Битовая глубина : 16 бит
    Метод сжатия : С потерями
    Размер потока : 287 Мбайт (8%)
    Заголовок : Original
    Язык : English
    По умолчанию : Нет
    Принудительно : Нет

    Текст #1
    Идентификатор : 5
    Формат : UTF-8
    Идентификатор кодека : S_TEXT/UTF8
    Идентификатор кодека/Информация : UTF-8 Plain Text
    Язык : Russian
    По умолчанию : Нет
    Принудительно : Нет

    Текст #2
    Идентификатор : 6
    Формат : UTF-8
    Идентификатор кодека : S_TEXT/UTF8
    Идентификатор кодека/Информация : UTF-8 Plain Text
    Язык : English
    По умолчанию : Нет
    Принудительно : Нет

    Меню
    00:00:00.000 : en:1
    00:03:28.448 : en:2
    00:14:17.448 : en:3
    00:21:22.448 : en:4
    00:30:31.448 : en:5
    00:42:27.448 : en:6
    00:53:29.448 : en:7
    01:02:13.448 : en:8
    01:10:48.448 : en:9
    01:26:22.448 : en:10
  • pb.wtf



    Скачать Английский цирюльник через торрент https://i2.imageban.ru/out/2019/07/12/0c70cdd4af609c15ad6e45ee8d8934e8.png Скачать фильм Английский цирюльник через торрент бесплантно в хорошем качестве Описание: Мелодичная трескотня бесперебойно работающих ножниц в руках волшебника-парикмахера способна совершить чудо. Искусство и фантазия ... 10 10 2
    Торрент: Зарегистрирован [2019-07-12 15:56] · скачан: 45 раз
    Статус: √ проверено
    Размер: 3.35 GB
    Как cкачать? Как скачать Английский цирюльник через торрент | qTorrent

    28-11-2019 20:33  

    Отключить всю рекламу на сайте

      Дорогой пользователь! Огромная просьба, поблагодарите релизера, оцените раздачу и оставьте свои комментарий, если Вы скачали Английский цирюльник через торрент бесплатно! Внесите свою лепту в развитие PiratBit!
      Комментировать посты могут только пользователи прошедшие не сложную регистрацию
      Показать сообщения:    

      Английский цирюльник через торрент
      Скачать бесплатно Английский цирюльник
      Английский цирюльник скачать торрент
      Английский цирюльник смотреть онлайн
      Cкачать фильм Английский цирюльник бесплатно
      Английский цирюльник скачать торрент в хорошем качестве
      Английский цирюльник смотреть онлайн бесплатно в хорошем качестве


      Вы не можете начинать темы
      Вы не можете отвечать на сообщения
      Вы не можете редактировать свои сообщения
      Вы не можете удалять свои сообщения
      Вы не можете голосовать в опросах
      Вы не можете прикреплять файлы к сообщениям
      Вы можете скачивать файлы