Anonymous, добрый вечер, присоединяйтесь к нам в Telegram!, здесь всегда актуальный адрес сайта, оперативная поддержка и многое другое!

>

5.5

iTunes

7.4

iTunes

7.9

iTunes

1

7.7

1 сезон

6.8

iTunes

7.3

1 сезон

13

6.7

1 сезон

8.3

RePack

30

ULTIMATE

pack

9.9

Лицензия

ВАЖНО

ИГРА 18+

pack

7.3

RePack

MK11

7.7

RePack

jed

7.8

RePack

fifa19

8.5

RePack

RDR2

RePack

NEED FOR SPEED™ PAYBACK

4 сезон

9 сезон

Бесстыжие 9 сезон

Все сериалы

все сериалы на PB.wtf

RePack

FAR CRY 5

Anonymous, добрый вечер, мы катастрофически не успеваем собрать деньги на оплату серверов, помогите нам пожалуйста 5,10,15р., для нас важна любая помощь . В качестве благодарности мы отключим Вам всю рекламу на сайте (укажите свой ник в строку Ваше имя)!

×
  
Magnet ссылка

Бихэппи / Сезон: 1 / Серии: 1-8 из 8 (Андрей Джунковский) [2019, драма, комедия, (18+), WEB-DL 720p] pb.wtf

Бихэппи через торрент pb.wtf

Размер: 9.61 GB | Добавлен: 2 года 2 мес. назад | Торрент скачан:206 раз
Смотреть онлайн Бихэппи | Скачать    Ребята, помогите собрать деньги на оплату серверов!!!

12-07-2019 19:12 Бихэппи Скачать торрент  

Бихэппи Год выпуска: 2019
Страна: Россия
Жанр: драма, комедия
Продолжительность: ~ 00:45:00
Перевод: Не требуется
Субтитры: отсутствуют

Режиссер: Андрей Джунковский

Версия 18+


В ролях: Александр Паль, Шамиль Хаматов, Мария Шалаева, Максим Лагашкин, Ольга Медынич, Наталья Рудова, Алиса Гребенщикова, Антон Филипенко

Описание: Хирург онкогинеколог Аркадий возвращается с семьей из Америки в Россию. Он едет по приглашению лучшего друга на должность директора клиники, где оказывается в эпицентре интриг между врачами и высокопоставленными пациентами. Как его примет персонал? И как быть Шуре, жене Аркадия, которой пришлось ехать за любимым мужем в нелюбимую страну? Сериал «БИХЭППИ» – это ироничный взгляд на поколение тридцатилетних, у которых есть всё для счастья, а счастья нет.

Качество: WEB-DL 720p
Формат: MKV

Видео: 1280x536, (2,40:1), 24 fps, AVC MPEG-4 (x264), High@L4.1 ~ 4000 kbps , 0.233 bit/pixel
Аудио: AC3 Dolby Digital, 48.0 kHz, 2/0 (L,R) ch, 192 kbps
скриншот  скриншот  скриншот  скриншот  

Общее
Уникальный идентификатор : 206139314597798238806239870464540607691 (0x9B14FCE50B4C06E1997311E60AA504CB)
Полное имя : C:\Бихэппи (2019) WEB-DL 720p. Files-x\01. Бихэппи.2019. WEB-DL 720p. Files-x.mkv
Формат : Matroska
Версия формата : Version 2
Размер файла : 1,25 Гбайт
Продолжительность : 42 м. 30 с.
Общий поток : 4195 Кбит/сек
Дата кодирования : UTC 2019-07-12 18:28:28
Программа кодирования : mkvmerge v8.3.0 ('Over the Horizon') 32bit
Библиотека кодирования : libebml v1.3.1 + libmatroska v1.4.2

Видео
Идентификатор : 1
Формат : AVC
Формат/Информация : Advanced Video Codec
Профиль формата : High@L4.1
Настройки формата : CABAC / 4 Ref Frames
Параметр CABAC формата : Да
Параметр RefFrames формата : 4 кадра
Идентификатор кодека : V_MPEG4/ISO/AVC
Продолжительность : 42 м. 30 с.
Битрейт : 4000 Кбит/сек
Ширина : 1280 пикселей
Высота : 536 пикселей
Соотношение сторон : 2,40:1
Режим частоты кадров : Постоянный
Частота кадров : 25,000 кадров/сек
Цветовое пространство : YUV
Субдискретизация насыщенности : 4:2:0
Битовая глубина : 8 бит
Тип развёртки : Прогрессивная
Бит/(Пиксели*Кадры) : 0.233
Размер потока : 1,16 Гбайт (93%)
Библиотека кодирования : x264 core 142 r2431+42 c69a006 tMod [8-bit@all X86_64]
Настройки программы : cabac=1 / ref=4 / deblock=1:0:0 / analyse=0x3:0x133 / me=hex / subme=2 / psy=1 / fade_compensate=0.00 / psy_rd=1.00:0.00 / mixed_ref=1 / me_range=16 / chroma_me=1 / trellis=2 / 8x8dct=1 / cqm=0 / deadzone=21,11 / fast_pskip=0 / chroma_qp_offset=0 / threads=24 / lookahead_threads=4 / sliced_threads=0 / nr=0 / decimate=1 / interlaced=0 / bluray_compat=0 / constrained_intra=0 / fgo=0 / bframes=2 / b_pyramid=2 / b_adapt=2 / b_bias=0 / direct=1 / weightb=1 / open_gop=0 / weightp=2 / keyint=240 / keyint_min=24 / scenecut=40 / intra_refresh=0 / rc=abr / mbtree=0 / bitrate=4000 / ratetol=1.0 / qcomp=0.60 / qpmin=0:0:0 / qpmax=69:69:69 / qpstep=4 / ip_ratio=1.40 / pb_ratio=1.30 / aq=1:1.00 / aq-sensitivity=10.00 / aq-factor=1.00:1.00:1.00 / aq2=0 / aq3=0
Default : Да
Forced : Нет

Аудио
Идентификатор : 2
Формат : AC-3
Формат/Информация : Audio Coding 3
Коммерческое название : Dolby Digital
Идентификатор кодека : A_AC3
Продолжительность : 42 м. 30 с.
Вид битрейта : Постоянный
Битрейт : 192 Кбит/сек
Каналы : 2 канала
ChannelLayout : L R
Частота : 48,0 КГц
Частота кадров : 31,250 кадров/сек (1536 SPF)
Битовая глубина : 16 бит
Метод сжатия : С потерями
Размер потока : 58,4 Мбайт (5%)
ServiceKind/String : Complete Main
Default : Да
Forced : Нет

Внимание! Раздача ведётся путём добавления новых серий; при каждом добавлении создаётся новый торрент. Чтобы начать докачку новой серии, пользователям необходимо сделать следующее:
(1) остановить скачивание,
(2) удалить старый торрент у себя из клиента (старые серии удалять не надо),
(3) скачать новый торрент и запустить его у себя в клиенте вместо старого, при этом указать клиенту путь в старую папку куда и должно происходить скачивание новых серий.

Ваш клиент при этом должен произвести хеширование (проверку) старой папки (если не производит сам - помогите ему сделать это), и будет докачивать только те серии которых у вас ещё нет. Старые серии при этом не удаляются, а продолжают раздаваться!

Eсли вы уже удалили старые серии, то предотвратить повторную закачку старых серий можно, отжав галочку в соответствующих местах при запуске нового торрента. По возможности, желательно не удалять старые серии как можно дольше чтобы релизёр не столько продолжал раздавать старые серии, а смог сконцентрироваться на новых.
pb.wtf



Скачать Бихэппи через торрент https://a.radikal.ru/a04/1907/e5/369c24867f09.jpg Скачать, смотреть онлайн Бихэппи бесплантно в хорошем качестве Описание: Хирург онкогинеколог Аркадий возвращается с семьей из Америки в Россию. Он едет по приглашению лучшего друга на должность ... 10 10 18
Торрент: Зарегистрирован [2019-08-15 08:24] · скачан: 206 раз
Статус: √ проверено
Размер: 9.61 GB
Как cкачать? Как скачать Бихэппи через торрент | UTorrent

% Раздел Тема Автор DL S | L
TNT serials [ 11.77 GB ] Бихэппи / Сезон: 1 / Серии: 1-8 из 8 [2019 WEB-DL 1080p] bober100 Скачать
2 | 0


Последний раз редактировалось: bober100 (2019-08-15 08:24), всего редактировалось 5 раз(а)

28-11-2019 20:33  

Отключить всю рекламу на сайте

18-07-2019 03:05 Бихэппи Скачать торрент  

ХОХОХО а ниче так паль такой паль
П.С когда починят наконец функцию. Уведомлять об ответах?pb.wtf



    Дорогой пользователь! Огромная просьба, поблагодарите релизера, оцените раздачу и оставьте свои комментарий, если Вы скачали Бихэппи через торрент бесплатно!
    Комментировать посты могут только пользователи прошедшие не сложную регистрацию
    Показать сообщения:    

    Бихэппи через торрент
    Скачать бесплатно Бихэппи
    Бихэппи скачать торрент
    Бихэппи смотреть онлайн
    Cкачать фильм Бихэппи бесплатно
    Бихэппи скачать торрент в хорошем качестве
    Бихэппи смотреть онлайн бесплатно в хорошем качестве


    Вы не можете начинать темы
    Вы не можете отвечать на сообщения
    Вы не можете редактировать свои сообщения
    Вы не можете удалять свои сообщения
    Вы не можете голосовать в опросах
    Вы не можете прикреплять файлы к сообщениям
    Вы можете скачивать файлы