Ссылка на приватное зеркало нашего сайта всего за 1$. Внимание количество ограничено!!!

2 сезон

iTunes

1 сезон

1

iTunes

iTunes

iTunes

1 сезон

RePack

30

ИГРА 18+

pack

ВАЖНО

!!Акция!!

Alien_RageХит недели

RePack

MK11
pack

Забери бонус

RePack

jed

!!Акция!!

Alien_Rage

RePack

fifa19

RePack

Assassins Creed: Odyssey

RePack

NEED FOR SPEED™ PAYBACK

4 сезон

9 сезон

Бесстыжие 9 сезон

Все сериалы

все сериалы на PB.wtf

RePack

FAR CRY 5
  

5 карт / Пятикарточный покер / 5 Card Stud (Генри Хэтауэй / Henry Hathaway) [1968, вестерн, детектив, NTSC DVDRemux] [MVO] (Paramount channel) + [VO] pb.wtf

5 карт через торрент pb.wtf

Размер: 4.08 GB | Добавлен: 1 год 3 мес. назад | Торрент скачан:3 раза
Скачать  

12-07-2019 20:08 5 карт Скачать торрент  

5 карт / Пятикарточный покер
5 Card Stud
Страна: США
Жанр: вестерн, детектив
Год выпуска: 1968
Продолжительность: 01:42:39
Перевод 1: Профессиональный (многоголосый закадровый) Paramount Channel
Перевод 2: Одноголосый закадровый (автор не опознан)
Субтитры: английские, французские




Режиссёр: Генри Хэтауэй / Henry Hathaway

В ролях: Роберт Митчум /Robert Mitchum/, Дин Мартин /Dean Martin/, Ингрен Стивенс /Inger Stevens/, Родди МакДауэлл /Roddy McDowall/, Кэтрин Джастис /Katherine Justice/, Яфет Котто /Yaphet Kotto/
Описание: Игра в покер неожиданно заканчивается линчеванием шулера пойманного на горячем. Но это еще не всё, что ожидает участников злосчастной партии. Один за другим они гибнут при загадочных обстоятельствах. Теперь всех заботит вопрос, кто будет следующим и кто же этот таинственный убийца?

Качество: DVDRemux
Формат: MKV
Видео: 720x480 (16:9) @ 854x480, MPEG-2 Video / 5106 kbps / 29,970 fps /
Аудио 1: AC3, 48 kHz, 2ch, 192.00 kbps: [Paramount Channel]
Аудио 2: AC3, 48 kHz, 2ch, 192.00 kbps: [VO]
Аудио 3: AC3, 48 kHz, 2ch, 192.00 kbps: [ENG]
Разбивка на главы: да
Формат субтитров: srt и оригинал
Title: 5 Card Stud (1968) NTSC DVD5
Size: 4.04 Gb ( 4 232 656,00 KBytes ) - DVD-5
Enabled regions: 1, 2, 3, 4, 5, 6, 7, 8

VTS_01 :
Play Length: 01:42:33+00:00:10+{00:00:01}
Video: NTSC 16:9 (720x480) VBR, Auto Letterboxed
Audio:
English (Dolby AC3, 2 ch)
Francais (Dolby AC3, 2 ch)
Subtitles:
English
Francais

* Menus Information *

VIDEO_TS Menu
Video:
NTSC 16:9 (720x480) VBR
Auto Pan&Scan
English Language Unit :
Title Menu

VTS_01 Menu
Video:
NTSC 16:9 (720x480) VBR
Auto Pan&Scan
English Language Unit :
Root Menu
Общее
Уникальный идентификатор : 149262495821898013425870589094322453470 (0x704AE9391D1F552F9176FCD8ED8F3BDE)
Полное имя : D:\Ремуксы\[AORE] Cult Films Remuxes\5 Card Stud (1968) NTSC\5 Card Stud 1968.mkv
Формат : Matroska
Версия формата : Version 4
Размер файла : 4,08 Гбайт
Продолжительность : 1 ч. 42 м.
Режим общего битрейта : Переменный
Общий поток : 5687 Кбит/сек
Дата кодирования : UTC 2019-07-09 19:12:11
Программа кодирования : mkvmerge v35.0.0 ('All The Love In The World') 64-bit
Библиотека кодирования : libebml v1.3.9 + libmatroska v1.5.2

Видео
Идентификатор : 1
Формат : MPEG Video
Версия формата : Version 2
Профиль формата : Main@Main
Настройки формата : CustomMatrix / BVOP
Параметр BVOP формата : Да
Параметр матрицы формата : Выборочная
Параметр GOP формата : M=3, N=12
Идентификатор кодека : V_MPEG2
Идентификатор кодека/Информация : MPEG 1 or 2 Video
Продолжительность : 1 ч. 42 м.
Вид битрейта : Переменный
Битрейт : 5106 Кбит/сек
Максимальный битрейт : 8520 Кбит/сек
Ширина : 720 пикселей
Высота : 480 пикселей
Соотношение сторон : 16:9
Режим частоты кадров : Переменный
Частота кадров : 24,000 кадра/сек
Частота кадров в оригинале : 29,970 (30000/1001) кадров/сек
Цветовое пространство : YUV
Субдискретизация насыщенности : 4:2:0
Битовая глубина : 8 бит
Метод сжатия : С потерями
Бит/(Пиксели*Кадры) : 0.616
Временной код первого кадра : 00:59:59;00
Оригинал временного кода : Group of pictures header
GOP, открыто/закрыто : Открыто
GOP, открыто/закрыто на первом кадре : Закрыто
Размер потока : 3,66 Гбайт (90%)
Язык : English
Default : Нет
Forced : Нет

Аудио #1
Идентификатор : 2
Формат : AC-3
Формат/Информация : Audio Coding 3
Коммерческое название : Dolby Digital
Идентификатор кодека : A_AC3
Продолжительность : 1 ч. 42 м.
Вид битрейта : Постоянный
Битрейт : 192 Кбит/сек
Каналы : 2 канала
ChannelLayout : L R
Частота : 48,0 КГц
Частота кадров : 31,250 кадров/сек (1536 SPF)
Битовая глубина : 16 бит
Метод сжатия : С потерями
Размер потока : 141 Мбайт (3%)
Заголовок : MVO (Paramount Channel)
Язык : Russian
ServiceKind/String : Complete Main
Default : Да
Forced : Нет

Аудио #2
Идентификатор : 3
Формат : AC-3
Формат/Информация : Audio Coding 3
Коммерческое название : Dolby Digital
Идентификатор кодека : A_AC3
Продолжительность : 1 ч. 42 м.
Вид битрейта : Постоянный
Битрейт : 192 Кбит/сек
Каналы : 2 канала
ChannelLayout : L R
Частота : 48,0 КГц
Частота кадров : 31,250 кадров/сек (1536 SPF)
Битовая глубина : 16 бит
Метод сжатия : С потерями
Размер потока : 141 Мбайт (3%)
Заголовок : VO
Язык : Russian
ServiceKind/String : Complete Main
Default : Нет
Forced : Нет

Аудио #3
Идентификатор : 4
Формат : AC-3
Формат/Информация : Audio Coding 3
Коммерческое название : Dolby Digital
Идентификатор кодека : A_AC3
Продолжительность : 1 ч. 42 м.
Вид битрейта : Постоянный
Битрейт : 192 Кбит/сек
Каналы : 2 канала
ChannelLayout : L R
Частота : 48,0 КГц
Частота кадров : 31,250 кадров/сек (1536 SPF)
Битовая глубина : 16 бит
Метод сжатия : С потерями
Размер потока : 141 Мбайт (3%)
Заголовок : Stereo
Язык : English
ServiceKind/String : Complete Main
Default : Нет
Forced : Нет

Текст #1
Идентификатор : 5
Формат : UTF-8
Идентификатор кодека : S_TEXT/UTF8
Идентификатор кодека/Информация : UTF-8 Plain Text
Продолжительность : 1 ч. 42 м.
Битрейт : 95 бит/сек
ElementCount : 1040
Размер потока : 71,5 Кбайт (0%)
Язык : English
Default : Нет
Forced : Нет

Текст #2
Идентификатор : 6
Формат : VobSub
Режим смешивания : zlib
Идентификатор кодека : S_VOBSUB
Идентификатор кодека/Информация : Picture based subtitle format used on DVDs
Продолжительность : 1 ч. 39 м.
Битрейт : 4370 бит/сек
ElementCount : 987
Размер потока : 3,12 Мбайт (0%)
Язык : English
Default : Нет
Forced : Нет

Текст #3
Идентификатор : 7
Формат : VobSub
Режим смешивания : zlib
Идентификатор кодека : S_VOBSUB
Идентификатор кодека/Информация : Picture based subtitle format used on DVDs
Продолжительность : 4 с. 96 мс.
Битрейт : 5179 бит/сек
ElementCount : 1
Размер потока : 2,59 Кбайт (0%)
Язык : French
Default : Нет
Forced : Нет

Меню
00:00:00.000 : en:Chapter 01
00:06:13.506 : en:Chapter 02
00:14:55.895 : en:Chapter 03
00:22:42.794 : en:Chapter 04
00:27:53.405 : en:Chapter 05
00:40:28.459 : en:Chapter 06
00:51:29.086 : en:Chapter 07
01:03:06.749 : en:Chapter 08
01:14:25.561 : en:Chapter 09
01:21:18.139 : en:Chapter 10
01:28:39.747 : en:Chapter 11
01:38:25.032 : en:Chapter 12
скриншот  скриншот  скриншот  
скриншот  скриншот  скриншот  
pb.wtf



Скачать 5 карт через торрент https://b.radikal.ru/b39/1907/e3/12869cf76f38.jpg Скачать фильм 5 карт через торрент бесплантно в хорошем качестве Описание: Игра в покер неожиданно заканчивается линчеванием шулера пойманного на горячем. Но это еще не всё, что ожидает участников ... 5 10 1
Торрент: Зарегистрирован [2019-07-12 20:08] · скачан: 3 раз
Статус: √ проверено
Размер: 4.08 GB
Как cкачать? Как скачать 5 карт через торрент | qTorrent

28-11-2019 20:33  

Отключить всю рекламу на сайте

    Дорогой пользователь! Огромная просьба, поблагодарите релизера, оцените раздачу и оставьте свои комментарий, если Вы скачали 5 карт через торрент бесплатно! Внесите свою лепту в развитие PiratBit!
    Комментировать посты могут только пользователи прошедшие не сложную регистрацию
    Показать сообщения:    

    5 карт через торрент
    Скачать бесплатно 5 карт
    5 карт скачать торрент
    5 карт смотреть онлайн
    Cкачать фильм 5 карт бесплатно
    5 карт скачать торрент в хорошем качестве
    5 карт смотреть онлайн бесплатно в хорошем качестве


    Вы не можете начинать темы
    Вы не можете отвечать на сообщения
    Вы не можете редактировать свои сообщения
    Вы не можете удалять свои сообщения
    Вы не можете голосовать в опросах
    Вы не можете прикреплять файлы к сообщениям
    Вы можете скачивать файлы