новый адрес
Ссылка на приватное зеркало всего за 1$. Внимание количество ограничено!!!

iTunes

1+1

iTunes

мы

WEB-DL

1

iTunes

Чернобыль

iTunes

Ральф против интернета

Лицензия

ПШазам

Лицензия

Оно 2

Лицензия

30
pack

Вам бонус

ВАЖНО

!!Акция!!

Alien_RageХит недели

RePack

Resident Evil 21

ИГРА 18+

pack

RePack

jed

!!Акция!!

Alien_Rage

RePack

fifa19

RePack

Assassins Creed: Odyssey

RePack

NEED FOR SPEED™ PAYBACK

3 сезон

9 сезон

Бесстыжие 9 сезон

Все сериалы

все сериалы на PB.wtf

RePack

FAR CRY 5
Ребята, катастрофически не хватает 1900р. для оплаты серверов за Октябрь (всвязи с блокировками трафик упал в 3 раза), 1-2р., выручайте.
  

В упор / Point Blank (Джо Линч / Joe Lynch) [2019, боевик, триллер, криминал, WEB-DLRip-AVC] [Dub] pb.wtf

В упор через торрент pb.wtf

Раздают: 16 [ 0.2 KB/s ]
Размер: 744 MB | Добавлен: 4 мес. 24 д. назад | Торрент скачан:122 раза
Скачать  

12-07-2019 21:03 В упор Скачать торрент  

В упор
Point Blank

«A Hell of a Day. A Hell of a Pair»

Страна: США
Жанр: боевик, триллер, криминал
Год выпуска: 2019
Продолжительность: 01:26:39

Перевод: Профессиональный (полное дублирование) [Невафильм | Netflix]
Субтитры: русские (форсированные, полные)
Оригинальная аудиодорожка: нет

Режиссер: Джо Линч / Joe Lynch

В ролях: Энтони Маки, Фрэнк Грилло, Марша Гей Харден, Кристиан Кук, Тейона Паррис, Борис МакГайвер, Карли Тамборски, Мин Ван, Маркис Мур, Лиа Хаттон Бисмор

Описание: Чтобы спасти свою беременную жену, медбрат из отделения неотложной помощи объединяется с раненым подозреваемым в убийстве, тем самым вовлекая обоих в гонку со временем, опасными преступниками и продажными полицейскими.



Релиз:

Автор рипа: stalkerok

Сэмпл

Качество видео: WEB-DLRip-AVC | Исходник: Point.Blank.2019.1080p.NF.WEB-DL.Rus.Eng_THD-NTG
Формат видео: MKV
Видео кодек: AVC
Аудио кодек: AAC
Видео: AVC, 1074 Кбит/сек, 874x366 (2.40:1), 23,976 кадр/сек
Аудио: AAC, 128 Кбит/сек, 48 КГц, 2.0 - русский
---[Information] [12.07.2019 23:47:42] x264 [info]: frame I:1032 Avg QP:13.83 size: 39494
---[Information] [12.07.2019 23:47:42] x264 [info]: frame P:28903 Avg QP:17.59 size: 12179
---[Information] [12.07.2019 23:47:42] x264 [info]: frame B:94734 Avg QP:19.78 size: 3196

General
Unique ID : 20605517249157964942955737252329704995 (0xF807A6FD5E276959637931289304E23)
Complete name : C:\temp\Point Blank\Point.Blank.2019.WEB-DLRip.x264.Rus.stalkerok.New-Team..mkv
Format : Matroska
Format version : Version 4
File size : 744 MiB
Duration : 1 h 26 min
Overall bit rate : 1 200 kb/s
Movie name : Point Blank (2019) | Rip by stalkerok
Encoded date : UTC 2019-07-12 20:50:51
Writing application : mkvmerge v33.1.0 ('Primrose') 64-bit
Writing library : libebml v1.3.7 + libmatroska v1.5.0

Video
ID : 1
Format : AVC
Format/Info : Advanced Video Codec
Format profile : High@L4.1
Format settings : CABAC / 12 Ref Frames
Format settings, CABAC : Yes
Format settings, RefFrames : 12 frames
Codec ID : V_MPEG4/ISO/AVC
Duration : 1 h 26 min
Bit rate : 1 074 kb/s
Width : 874 pixels
Height : 366 pixels
Display aspect ratio : 2.40:1
Frame rate mode : Constant
Frame rate : 23.976 FPS
Color space : YUV
Chroma subsampling : 4:2:0
Bit depth : 8 bits
Scan type : Progressive
Bits/(Pixel*Frame) : 0.140
Stream size : 663 MiB (89%)
Title : Point Blank (2019) | Rip by stalkerok
Writing library : x264 core 157 r2945 72db437
Encoding settings : cabac=1 / ref=12 / deblock=1:-2:-1 / analyse=0x3:0x133 / me=umh / subme=10 / psy=1 / psy_rd=1.00:0.00 / mixed_ref=1 / me_range=32 / chroma_me=1 / trellis=2 / 8x8dct=1 / cqm=0 / deadzone=21,11 / fast_pskip=0 / chroma_qp_offset=-2 / threads=11 / lookahead_threads=2 / sliced_threads=0 / nr=0 / decimate=0 / interlaced=0 / bluray_compat=0 / constrained_intra=0 / bframes=16 / b_pyramid=2 / b_adapt=2 / b_bias=0 / direct=3 / weightb=1 / open_gop=0 / weightp=2 / keyint=240 / keyint_min=23 / scenecut=40 / intra_refresh=0 / rc_lookahead=60 / rc=2pass / mbtree=0 / bitrate=1074 / ratetol=1.0 / qcomp=0.65 / qpmin=0 / qpmax=69 / qpstep=4 / cplxblur=20.0 / qblur=0.5 / vbv_maxrate=50000 / vbv_bufsize=62500 / nal_hrd=none / filler=0 / ip_ratio=1.40 / pb_ratio=1.30 / aq=3:0.90
Default : Yes
Forced : No

Audio
ID : 2
Format : AAC LC
Format/Info : Advanced Audio Codec Low Complexity
Codec ID : A_AAC-2
Duration : 1 h 26 min
Bit rate : 128 kb/s
Channel(s) : 2 channels
Channel layout : L R
Sampling rate : 48.0 kHz
Frame rate : 46.875 FPS (1024 SPF)
Compression mode : Lossy
Delay relative to video : 9 ms
Stream size : 79.3 MiB (11%)
Language : Russian
Default : Yes
Forced : No

Text #1
ID : 3
Format : UTF-8
Codec ID : S_TEXT/UTF8
Codec ID/Info : UTF-8 Plain Text
Duration : 1 h 25 min
Bit rate : 1 b/s
Count of elements : 16
Stream size : 779 Bytes (0%)
Title : Forced
Language : Russian
Default : Yes
Forced : No

Text #2
ID : 4
Format : UTF-8
Codec ID : S_TEXT/UTF8
Codec ID/Info : UTF-8 Plain Text
Duration : 1 h 25 min
Bit rate : 85 b/s
Count of elements : 1146
Stream size : 53.3 KiB (0%)
Title : Full
Language : Russian
Default : No
Forced : No
pb.wtf



Скачать В упор через торрент http://i6.imageban.ru/out/2017/09/18/2ff75c0c358795c5946784cc1680714d.png Скачать фильм В упор через торрент бесплантно в хорошем качестве Описание: Чтобы спасти свою беременную жену, медбрат из отделения неотложной помощи объединяется с раненым подозреваемым в убийстве, тем ... 9.7 10 7
Info! Золотая раздача, скачанное не засчитывается.
Торрент: Зарегистрирован [2019-07-12 21:03] · скачан: 122 раз
Статус: √ проверено
Размер: 744 MB
Как cкачать? Как скачать В упор через торрент | qTorrent

% Раздел Тема Автор DL S | L
Фильмы 2019 [DVDrip, WEB-DLRip, HDrip] (DUB, MVO) [ 1.45 GB ] В упор / Point Blank [2019 WEB-DLRip] DUB [Netflix] bober100 Скачать
5 | 0
Фильмы 2019 [DVDrip, WEB-DLRip, HDrip] (DUB, MVO) [ 2.13 GB ] В упор / Point Blank [2019 WEB-DLRip-AVC] sokol_ok Скачать
23 | 25
Фильмы 2019 [DVDrip, WEB-DLRip, HDrip] (DUB, MVO) [ 1.36 GB ] В упор / Point Blank [2019 WEB-DLRip-AVC] sokol_ok Скачать
20 | 0
Фильмы (WEB-DL 720p, 1080p) [ 3.13 GB ] В упор / Point Blank [2019 WEB-DL 1080p] DUB [Netflix] bober100 Скачать
5 | 0
Фильмы [HD 720p, 1080p] (Хороший звук DUB, MVO) [ 9.1 GB ] В упор / Point Blank [1967 BDRip 1080p by msltel] MVO msltel Скачать
1 | 0
Фильмы [HD 720p, 1080p] (Хороший звук DUB, MVO) [ 3.38 GB ] В упор / Point Blank [1967 BDRip 720p by msltel] MVO msltel Скачать
1 | 0
Action FPS (1st Person) [ 401 MB ] Выстрел в Упор : Point Blank Shmel Скачать
1 | 0

28-11-2019 20:33  

Отключить всю рекламу на сайте

    Дорогой пользователь! Огромная просьба, поблагодарите релизера, оцените раздачу и оставьте свои комментарий, если Вы скачали В упор через торрент бесплатно! Внесите свою лепту в развитие PiratBit!
    Комментировать посты могут только пользователи прошедшие не сложную регистрацию
    Показать сообщения:    

    В упор через торрент
    Скачать бесплатно В упор
    В упор скачать торрент
    В упор смотреть онлайн
    Cкачать фильм В упор бесплатно
    В упор скачать торрент в хорошем качестве
    В упор смотреть онлайн бесплатно в хорошем качестве


    Вы не можете начинать темы
    Вы не можете отвечать на сообщения
    Вы не можете редактировать свои сообщения
    Вы не можете удалять свои сообщения
    Вы не можете голосовать в опросах
    Вы не можете прикреплять файлы к сообщениям
    Вы можете скачивать файлы