Ссылка на приватное зеркало нашего сайта всего за 1$. Внимание количество ограничено!!!

2 сезон

iTunes

1 сезон

1

2 сезон

2 сезон

iTunes

1 сезон

RePack

30

Ultimate

ВАЖНО

ИГРА 18+

pack

RePack

MK11
pack

Забери бонус

RePack

jed

!!Акция!!

Alien_Rage

RePack

fifa19

RePack

Assassins Creed: Odyssey

RePack

NEED FOR SPEED™ PAYBACK

4 сезон

9 сезон

Бесстыжие 9 сезон

Все сериалы

все сериалы на PB.wtf

RePack

FAR CRY 5
  

Годы / Years and Years / Сезон: 1 / Серии: 1-6 из 6 (Саймон Селлан Джоунс, Лиза Мулкахи) [2019, драма, WEB-DLRip] MVO [TVShows] pb.wtf

Годы через торрент pb.wtf

Раздают: 1 [ 0 KB/s ]
Размер: 4.81 GB | Добавлен: 1 год 4 мес. назад | Торрент скачан:67 раз
Скачать  

13-07-2019 02:52 Годы Скачать торрент  

Годы / Years and Years Год выпуска: 2019
Страна: Великобритания
Жанр: драма
Продолжительность: ~ 00:56:00
Перевод: Профессиональный (многоголосый закадровый) | TVShows
Субтитры: нет

Режиссёр: Саймон Селлан Джоунс, Лиза Мулкахи

В ролях: Эмма Томпсон, Рори Киннер, Т’Ниа Миллер, Рассел Тови, Джессика Хайнс, Джейд Аллейн, Макс Болдри, Шэрон Дункан-Брюстер, Рут Маделей

Описание: История об эпатажной Вивьен Рук, которая превращается в скандальную политическую фигуру. Она — политик новой формации. Шоувумен, бунтарка, шарлатанка. Великобритания переживает сложный период дестабилизации, а ее приход к власти еще больше раскалывает нацию и не сулит никакого светлого будущего. Действие начинается в 2019 году и разворачивается в течение следующих 15 турбулентных лет.

rating

Качество: WEB-DLRip
Формат: AVI

Видео: XviD, 704x352, 25 fps, ~ 1599 kbps
Аудио 1: 48 kHz, AC3 2 ch, ~192 kbps|TVShows|
Аудио 2: 48 kHz, AC3 2 ch, ~192 kbps


Реклама: Отсутствует
Format : AVI
Format/Info : Audio Video Interleave
File size : 799 MiB
Duration : 55mn 54s
Overall bit rate : 1 998 Kbps
Movie name : Годы 1х01: Эпизод 1
Director : Бёдвар (WEB-DLRip)
Writing application : VirtualDubModRus 1.5.10.2 (build 2542/release)
Comment : 12.06.2019

Video
ID : 0
Format : MPEG-4 Visual
Format profile : Advanced Simple@L5
Format settings, BVOP : 1
Format settings, QPel : No
Format settings, GMC : No warppoints
Format settings, Matrix : Default (MPEG)
Codec ID : XVID
Codec ID/Hint : XviD
Duration : 55mn 54s
Bit rate : 1 600 Kbps
Width : 704 pixels
Height : 352 pixels
Display aspect ratio : 2.000
Frame rate : 25.000 fps
Color space : YUV
Chroma subsampling : 4:2:0
Bit depth : 8 bits
Scan type : Progressive
Compression mode : Lossy
Bits/(Pixel*Frame) : 0.258
Stream size : 640 MiB (80%)
Writing library : XviD 67

Audio #1
ID : 1
Format : AC-3
Format/Info : Audio Coding 3
Mode extension : CM (complete main)
Format settings, Endianness : Big
Codec ID : 2000
Duration : 55mn 54s
Bit rate mode : Constant
Bit rate : 192 Kbps
Channel(s) : 2 channels
Channel positions : Front: L R
Sampling rate : 48.0 KHz
Frame rate : 31.250 fps (1536 spf)
Compression mode : Lossy
Stream size : 76.8 MiB (10%)
Alignment : Split accross interleaves
Interleave, duration : 40 ms (1.00 video frame)
Interleave, preload duratio : 500 ms

Audio #2
ID : 2
Format : AC-3
Format/Info : Audio Coding 3
Mode extension : CM (complete main)
Format settings, Endianness : Big
Codec ID : 2000
Duration : 55mn 54s
Bit rate mode : Constant
Bit rate : 192 Kbps
Channel(s) : 2 channels
Channel positions : Front: L R
Sampling rate : 48.0 KHz
Frame rate : 31.250 fps (1536 spf)
Compression mode : Lossy
Stream size : 76.8 MiB (10%)
Alignment : Split accross interleaves
Interleave, duration : 40 ms (1.00 video frame)
Interleave, preload duratio : 500 ms
скриншот  скриншот  скриншот  скриншот  
Внимание! Раздача ведётся путём добавления новых серий; при каждом добавлении создаётся новый торрент. Чтобы начать докачку новой серии,пользователям необходимо сделать следующее:
(1) остановить скачивание,
(2) удалить старый торрент у себя из клиента (старые серии удалять не надо),
(3) скачать новый торрент и запустить его у себя в клиенте вместо старого, при этом указать клиенту путь в старую папку куда и должнопроисходить скачивание новых серий.

Ваш клиент при этом должен произвести хеширование (проверку) старой папки (если не производит сам - помогите ему сделать это), и будет докачивать только те серии
которых у вас ещё нет. Старые серии при этом не удаляются, а продолжают раздаваться!

Eсли вы уже удалили старые серии, то предотвратить повторную закачку старых серий можно, отжав галочку в соответствующих местах при запуске нового торрента.

По возможности, желательно не удалять старые серии как можно дольше чтобы релизёр не столько продолжал раздавать старые серии, а смог сконцентрироваться на новых.
pb.wtf



Скачать Годы через торрент https://c.radikal.ru/c36/1906/11/59739e4b9e38.jpg Скачать фильм Годы через торрент бесплантно в хорошем качестве Описание: История об эпатажной Вивьен Рук, которая превращается в скандальную политическую фигуру. Она — политик новой формации. Шоувумен, ... 10 10 3
Торрент: Зарегистрирован [2019-07-13 02:52] · скачан: 67 раз
Статус: √ проверено
Размер: 4.81 GB
Как cкачать? Как скачать Годы через торрент | qTorrent

% Раздел Тема Автор DL S | L
Зарубежные сериалы [ 13.52 GB ] Годы / Years and Years / Сезон: 1 / Серии: 1-6 из 6 [2019 WEBRip 1080p] MVO [TVShows] bober100 Скачать
1 | 0

28-11-2019 20:33  

Отключить всю рекламу на сайте

    Дорогой пользователь! Огромная просьба, поблагодарите релизера, оцените раздачу и оставьте свои комментарий, если Вы скачали Годы через торрент бесплатно! Внесите свою лепту в развитие PiratBit!
    Комментировать посты могут только пользователи прошедшие не сложную регистрацию
    Показать сообщения:    

    Годы через торрент
    Скачать бесплатно Годы
    Годы скачать торрент
    Годы смотреть онлайн
    Cкачать фильм Годы бесплатно
    Годы скачать торрент в хорошем качестве
    Годы смотреть онлайн бесплатно в хорошем качестве


    Вы не можете начинать темы
    Вы не можете отвечать на сообщения
    Вы не можете редактировать свои сообщения
    Вы не можете удалять свои сообщения
    Вы не можете голосовать в опросах
    Вы не можете прикреплять файлы к сообщениям
    Вы можете скачивать файлы