Ссылка на приватное зеркало нашего сайта всего за 1$. Внимание количество ограничено!!!

2 сезон

iTunes

1 сезон

1

2 сезон

2 сезон

iTunes

1 сезон

RePack

30

Ultimate

ВАЖНО

ИГРА 18+

pack

RePack

MK11
pack

Забери бонус

RePack

jed

!!Акция!!

Alien_Rage

RePack

fifa19

RePack

Assassins Creed: Odyssey

RePack

NEED FOR SPEED™ PAYBACK

4 сезон

9 сезон

Бесстыжие 9 сезон

Все сериалы

все сериалы на PB.wtf

RePack

FAR CRY 5
  

Йеллоустоун / Yellowstone / Сезон: 1 / Серии: 1-9 из 9 (Тейлор Шеридан) [2018, Драма, вестерн, WEB-DL 720p] MVO [NewStudio] pb.wtf

Йеллоустоун через торрент pb.wtf

Размер: 10.67 GB | Добавлен: 1 год 4 мес. назад | Торрент скачан:56 раз
Скачать  

13-07-2019 04:53 Йеллоустоун Скачать торрент  

Йеллоустоун / Yellowstone Год выпуска: 2018
Страна: США
Жанр: Драма, вестерн
Продолжительность: ~ 00:55:00
Перевод: Профессиональный (многоголосый закадровый) | NewStudio
Субтитры: Отсутствуют

Режиссёр: Тейлор Шеридан

В ролях: Кевин Костнер, Келли Райлли, Коул Хаузер, Люк Граймс, Уэс Бентли, Келси Эсбиль и др.

Описание: Йеллоустон — первый в мире национальный парк, одно из самих посещаемых мест в США. Но здесь, на границе цивилизации, происходит много такого, чего не видят туристы, что не освещается средствами массовой информации. Семья Даттон, главой которой является Джон Даттон, владеет огромным ранчо, сопредельным с территорией парка. На их землю претендует и сам парк, и индейская резервация, и жадные застройщики.



Качество: WEB-DL 720p
Формат: MKV

Видео: AVC, 1280x720 (16:9), 23,976 fps, ~2458 kbps
Аудио 1: AC3, 48,0 kHz, 2 ch, 192 kbps | RUS
Аудио 2: E-AC3, 48,0 kHz, 2 ch, 224 kbps | ENG [Серии: 5, 7, 8 — AAC]
Общее
Уникальный идентификатор : 183610432973771305599180067805776144816 (0x8A221545D1C2C78308F8F68BB16169B0)
Полное имя : D:\Distributions\Yellowstone\Yellowstone.s01e01.WEBDL.720p.NewStudio.mkv
Формат : Matroska
Версия формата : Version 4 / Version 2
Размер файла : 1,86 Гбайт
Продолжительность : 1 ч. 32 м.
Режим общего битрейта : Переменный
Общий поток : 2876 Кбит/сек
Дата кодирования : UTC 2018-07-04 13:14:09
Программа кодирования : mkvmerge v24.0.0 ('Beyond The Pale') 64-bit
Библиотека кодирования : libebml v1.3.6 + libmatroska v1.4.9

Видео
Идентификатор : 1
Формат : AVC
Формат/Информация : Advanced Video Codec
Профиль формата : High@L3.1
Настройки формата : CABAC / 5 Ref Frames
Параметр CABAC формата : Да
Параметр RefFrames формата : 5 кадров
Идентификатор кодека : V_MPEG4/ISO/AVC
Продолжительность : 1 ч. 32 м.
Вид битрейта : Переменный
Битрейт : 2458 Кбит/сек
Максимальный битрейт : 4500 Кбит/сек
Ширина : 1280 пикселей
Высота : 720 пикселей
Соотношение сторон : 16:9
Режим частоты кадров : Постоянный
Частота кадров : 23,976 (24000/1001) кадра/сек
Цветовое пространство : YUV
Субдискретизация насыщенности : 4:2:0
Битовая глубина : 8 бит
Тип развёртки : Прогрессивная
Бит/(Пиксели*Кадры) : 0.111
Размер потока : 1,59 Гбайт (85%)
Default : Да
Forced : Нет
Цветовой диапазон : Limited
Основные цвета : BT.709
Характеристики трансфера : BT.709
Коэффициенты матрицы : BT.709

Аудио #1
Идентификатор : 2
Формат : AC-3
Формат/Информация : Audio Coding 3
Идентификатор кодека : A_AC3
Продолжительность : 1 ч. 32 м.
Вид битрейта : Постоянный
Битрейт : 192 Кбит/сек
Каналы : 2 канала
Расположение каналов : Front: L R
Частота : 48,0 КГц
Частота кадров : 31,250 кадров/сек (1536 SPF)
Битовая глубина : 16 бит
Метод сжатия : С потерями
Размер потока : 127 Мбайт (7%)
Язык : Russian
ServiceKind/String : Complete Main
Default : Да
Forced : Да

Аудио #2
Идентификатор : 3
Формат : E-AC-3
Формат/Информация : Enhanced Audio Coding 3
Идентификатор кодека : A_EAC3
Продолжительность : 1 ч. 32 м.
Вид битрейта : Постоянный
Битрейт : 224 Кбит/сек
Каналы : 2 канала
Расположение каналов : Front: L R
Частота : 48,0 КГц
Частота кадров : 187,500 кадров/сек (256 SPF)
Метод сжатия : С потерями
Размер потока : 149 Мбайт (8%)
Язык : English
ServiceKind/String : Complete Main
Default : Нет
Forced : Нет
Когда раздача ведётся путём добавления новых серий, при каждом добавлении создётся новый торрент. Чтобы начать докачку новой серии, пользователям необходимо сделать следующее:
(1) остановить скачивание,
(2) удалить старый торрент у себя из клиента (старые серии удалять не надо),
(3) скачать новый торрент и запустить его у себя в клиенте вместо старого, при этом указать клиенту путь в старую папку, куда и должно происходить скачивание новых серий.
Ваш клиент при этом должен произвести хеширование (проверку) старой папки (если не производит сам - помогите ему сделать это), и будет докачивать только те серии, которых у вас ещё нет. Старые серии при этом не удаляются, а продолжают раздаваться!
Eсли вы уже удалили старые серии, то предотвратить повторную закачку старых серий можно, отжав галочку в соответсвующих местах при запуске нового торрента. По возможности, желательно не удалять старые серии как можно дольше, чтобы релизёр не столько продолжал раздавать старые серии, а смог сконцентрироваться на новых.
pb.wtf



Скачать Йеллоустоун через торрент http://i5.imageban.ru/out/2018/08/18/90c100c144daf22539d392979b866e1c.png Скачать фильм Йеллоустоун через торрент бесплантно в хорошем качестве Описание: Йеллоустон — первый в мире национальный парк, одно из самих посещаемых мест в США. Но здесь, на границе цивилизации, происходит ... 10 10 2
Торрент: Зарегистрирован [2019-07-13 04:53] · скачан: 56 раз
Статус: √ проверено
Размер: 10.67 GB
Как cкачать? Как скачать Йеллоустоун через торрент | qTorrent

% Раздел Тема Автор DL S | L
Зарубежные сериалы [ 11.86 GB ] Йеллоустоун / Yellowstone / Сезон: 1 / Серии: 1-9 из 9 [2018 HDRip-AVC] [DVO] killermax2013 Скачать
2 | 0
Зарубежные сериалы [ 33.35 GB ] Йеллоустоун / Yellowstone / Сезон: 1 / Серии: 1-9 из 9 [2018 WEBRip 1080p] [MVO] killermax2013 Скачать
1 | 0
Зарубежные сериалы [ 9 GB ] Йеллоустоун / Yellowstone / Сезон: 1 / Серии: 1-9 из 9 [2018 WEBRip 720p] MVO [LostFilm] bober100 Скачать
2 | 0
Зарубежные сериалы [ 21.19 GB ] Йеллоустоун / Yellowstone / Сезон: 1 / Серии: 1-9 из 9 [2018 BDRip 1080p] MVO [LostFilm] bober100 Скачать
2 | 0
Зарубежные сериалы [ 24.44 GB ] Йеллоустоун / Yellowstone / Сезон: 1 / Серии: 1-9 из 9 [2018 WEBRip 1080p] MVO [TVShows] bober100 Скачать
1 | 0
Зарубежные сериалы [ 7.19 GB ] Йеллоустоун / Yellowstone / Сезон: 1 / Серии: 1-9 из 9 [2018 WEBRip] MVO [TVShows] bober100 Скачать
2 | 0

28-11-2019 20:33  

Отключить всю рекламу на сайте

    Дорогой пользователь! Огромная просьба, поблагодарите релизера, оцените раздачу и оставьте свои комментарий, если Вы скачали Йеллоустоун через торрент бесплатно! Внесите свою лепту в развитие PiratBit!
    Комментировать посты могут только пользователи прошедшие не сложную регистрацию
    Показать сообщения:    

    Йеллоустоун через торрент
    Скачать бесплатно Йеллоустоун
    Йеллоустоун скачать торрент
    Йеллоустоун смотреть онлайн
    Cкачать фильм Йеллоустоун бесплатно
    Йеллоустоун скачать торрент в хорошем качестве
    Йеллоустоун смотреть онлайн бесплатно в хорошем качестве


    Вы не можете начинать темы
    Вы не можете отвечать на сообщения
    Вы не можете редактировать свои сообщения
    Вы не можете удалять свои сообщения
    Вы не можете голосовать в опросах
    Вы не можете прикреплять файлы к сообщениям
    Вы можете скачивать файлы