Ссылка на приватное зеркало всего за 1$. Внимание количество ограничено!!!

OK

1+1

iTunes

мы

OK

1

WEB-DLRip

Джокер

Пифагор

Ведьмак / The Witcher сериал

Лицензия

ПШазам

ОК

Оно 2

iTunes

30
pack

Вам бонус

ВАЖНО

!!Акция!!

Alien_RageХит недели

RePack

Resident Evil 21

ИГРА 18+

pack

RePack

jed

RePack

fifa19

RePack

Assassins Creed: Odyssey

RePack

NEED FOR SPEED™ PAYBACK

4 сезон

9 сезон

Бесстыжие 9 сезон

Все сериалы

все сериалы на PB.wtf

RePack

FAR CRY 5
  

Дитя тьмы / The Hollow Child (Джереми Люттер) [2017, ужасы, триллер, драма, детектив, BDRip 720p] DUB [Line] pb.wtf

Дитя тьмы через торрент pb.wtf

Размер: 4.49 GB | Добавлен: 6 мес. назад | Торрент скачан:97 раз
Скачать  

13-07-2019 06:21 Дитя тьмы Скачать торрент  

Дитя тьмы / The Hollow Child
Год выпуска: 2017
Страна: Канада
Жанр: ужасы, триллер, драма, детектив
Продолжительность: 01:30:27
Перевод: Дублированный | Line
Субтитры: отсутствуют

Режиссер: Джереми Люттер

rating

В ролях: Джессика Маклеод, Ханна Черами, Джон Эммет Трэйси, Яна Мицула, Женевьев Бюкнер, Коннор Стэнхоуп, Джоанна Ньюмарк, Крэйг Марч, Мами Лейврок, Лэйкен Лэйврок

Описание: Любимица всей семьи Оливия пропадает во время прогулки. Поиски в лесной чаще ничего не дают. Спустя несколько дней Оливия чудесным образом возвращается домой. И только ее старшая сестра Саманта понимает, что вместо Оливии вернулось нечто другое и очень недоброе.

Качество: BDRip 720p
Формат: MKV

Видео: h.264,6 650 Кбит/с, 1280x536
Аудио: Русский (AC3, 2 ch, 448 Кбит/с)
скриншот  скриншот  скриншот  

Общее
Уникальный идентификатор : 184338342454413590894129031403629030301 (0x8AAE45FB20E39F02A59553D01325AB9D)
Полное имя : D:\The.Hollow.Child.2017.D.BDRip.72Op.mkv
Формат : Matroska
Версия формата : Version 2
Размер файла : 4,49 Гбайт
Продолжительность : 1 ч. 30 м.
Режим общего битрейта : Переменный
Общий поток : 7100 Кбит/сек
Дата кодирования : UTC 2019-07-12 05:41:47
Программа кодирования : mkvmerge v8.3.0 ('Over the Horizon') 64bit
Библиотека кодирования : libebml v1.3.1 + libmatroska v1.4.2

Видео
Идентификатор : 2
Формат : AVC
Формат/Информация : Advanced Video Codec
Профиль формата : High@L4.1
Параметр CABAC формата : Да
Параметр RefFrames формата : 4 кадра
Идентификатор кодека : V_MPEG4/ISO/AVC
Продолжительность : 1 ч. 30 м.
Вид битрейта : Переменный
Битрейт : 6650 Кбит/сек
Номинальный битрейт : 7500 Кбит/сек
Максимальный битрейт : 7500 Кбит/сек
Ширина : 1280 пикселей
Высота : 536 пикселей
Соотношение сторон : 2,40:1
Режим частоты кадров : Постоянный
Частота кадров : 23,976 (24000/1001) кадра/сек
Стандарт вещания : Component
Цветовое пространство : YUV
Субдискретизация насыщенности : 4:2:0
Битовая глубина : 8 бит
Тип развёртки : Прогрессивная
Бит/(Пиксели*Кадры) : 0.396
Размер потока : 4,11 Гбайт (92%)
Библиотека кодирования : x264 core 148
Настройки программы : cabac=1 / ref=4 / deblock=1:0:0 / analyse=0x3:0x3 / me=dia / subme=1 / psy=1 / psy_rd=1.00:0.00 / mixed_ref=0 / me_range=16 / chroma_me=1 / trellis=0 / 8x8dct=1 / cqm=1 / deadzone=21,11 / fast_pskip=1 / chroma_qp_offset=0 / threads=17 / lookahead_threads=2 / sliced_threads=0 / slices=1 / nr=0 / decimate=1 / interlaced=0 / minigop=0 / stitchable=1 / constrained_intra=0 / bframes=2 / b_pyramid=0 / b_adapt=0 / b_bias=0 / direct=1 / weightb=1 / open_gop=1 / weightp=0 / keyint=240 / keyint_min=23 / scenecut=40 / intra_refresh=0 / rc_lookahead=0 / rc=cbr / mbtree=0 / bitrate=7500 / ratetol=1.0 / qcomp=0.60 / qpmin=1 / qpmax=69 / qpstep=4 / vbv_maxrate=7500 / vbv_bufsize=7500 / nal_hrd=vbr / filler=0 / ip_ratio=1.40 / pb_ratio=1.30 / aq=1:1.00
Default : Да
Forced : Нет
Цветовой диапазон : Limited
Основные цвета : BT.709
Характеристики трансфера : BT.709
Коэффициенты матрицы : BT.709

Аудио
Идентификатор : 1
Формат : AC-3
Формат/Информация : Audio Coding 3
Расширение режима : CM (complete main)
Параметр Endianness формата : Big
Идентификатор кодека : A_AC3
Продолжительность : 1 ч. 30 м.
Вид битрейта : Постоянный
Битрейт : 448 Кбит/сек
Каналы : 2 канала
Расположение каналов : Front: L R
Частота : 48,0 КГц
Частота кадров : 31,250 кадров/сек (1536 spf)
Метод сжатия : С потерями
Размер потока : 290 Мбайт (6%)
Default : Да
Forced : Нет

pb.wtf



Скачать Дитя тьмы через торрент https://c.radikal.ru/c04/1907/41/32a52137cfa4.jpg Скачать фильм Дитя тьмы через торрент бесплантно в хорошем качестве Описание: Любимица всей семьи Оливия пропадает во время прогулки. Поиски в лесной чаще ничего не дают. Спустя несколько дней Оливия ... 10 10 5
Торрент: Зарегистрирован [2019-07-13 06:21] · скачан: 97 раз
Статус: # сомнительно
Размер: 4.49 GB
Как cкачать? Как скачать Дитя тьмы через торрент | qTorrent

% Раздел Тема Автор DL S | L
Фильмы 2017 [DVDrip, WEB-DLRip, HDrip] (DUB, MVO) [ 1.46 GB ] Дитя тьмы / The Hollow Child [2017 WEB-DLRip] bober100 Скачать
1 | 0

28-11-2019 20:33  

Отключить всю рекламу на сайте

    Дорогой пользователь! Огромная просьба, поблагодарите релизера, оцените раздачу и оставьте свои комментарий, если Вы скачали Дитя тьмы через торрент бесплатно! Внесите свою лепту в развитие PiratBit!
    Комментировать посты могут только пользователи прошедшие не сложную регистрацию
    Показать сообщения:    

    Дитя тьмы через торрент
    Скачать бесплатно Дитя тьмы
    Дитя тьмы скачать торрент
    Дитя тьмы смотреть онлайн
    Cкачать фильм Дитя тьмы бесплатно
    Дитя тьмы скачать торрент в хорошем качестве
    Дитя тьмы смотреть онлайн бесплатно в хорошем качестве


    Вы не можете начинать темы
    Вы не можете отвечать на сообщения
    Вы не можете редактировать свои сообщения
    Вы не можете удалять свои сообщения
    Вы не можете голосовать в опросах
    Вы не можете прикреплять файлы к сообщениям
    Вы можете скачивать файлы