Ссылка на приватное зеркало всего за 1$. Внимание количество ограничено!!!

iTunes

1+1

iTunes

мы

MV0

1

WEB-DLRip

Джокер

Пифагор

Ведьмак / The Witcher сериал

iTunes

ПШазам

iTunes

Оно 2

iTunes

30
pack

Вам бонус

ВАЖНО

!!Акция!!

Alien_RageХит недели

RePack

Resident Evil 21

ИГРА 18+

pack

RePack

jed

!!Акция!!

Alien_Rage

RePack

fifa19

RePack

Assassins Creed: Odyssey

RePack

NEED FOR SPEED™ PAYBACK

4 сезон

9 сезон

Бесстыжие 9 сезон

Все сериалы

все сериалы на PB.wtf

RePack

FAR CRY 5
  

Уилл Пэнни / Will Penny (Том Гриз) [1967 г., мелодрама, вестерн, WEB-DLRip 720p] MVO + AVO - KORSAR pb.wtf

Уилл Пэнни через торрент pb.wtf

Раздают: 1 [ 0 KB/s ]
Размер: 5 GB | Добавлен: 7 мес. назад | Торрент скачан:11 раз
Скачать  

13-07-2019 11:11 Уилл Пэнни Скачать торрент  

Уилл Пэнни / Will Penny
Год выпуска: 1967
Страна: США
Жанр: Мелодрама, вестерн
Продолжительность: 01:49:43
Перевод: Профессиональный многоголосый, авторский одноголосый
Субтитры: Английские
Режиссёр: Том Гриз
В ролях: Чарлтон Хестон, Джоан Хэккетт, Дональд Плезенс, Ли Мэйджорс, Брюс Дерн, Бен Джонсон, Слим Пикенс, Клифтон Джеймс, Энтони Зербе, Рой Дженсон, Квентин Дин, Уильям Шэллерт, Лидия Кларк, Джон Грайз
Описание: Снятый в конце 60-х "Уилл Пенни" стал, быть может, первым вестерном, который не ностальгировал по прошлому, оплакивал будущее или издевался над настоящим. История немолодого ковбоя-одиночки Уилла Пенни, который устраивается на работу погонщиком скота, а по возвращению в свою хижину обнаруживает, что она занята незамужней женщиной с сыном-подростком. Актерский состав фильма исключительно удачен, несмотря на отсутствие громких имен. Главная удача картины - это прекрасная игра Ч. Хестона.

rating

Качество: WEB-DLRip 720p
Формат: MKV
Видео: MPEG-4 AVC, 5913 Кбит/сек, 1280x720, 23.976 кадра/сек
Аудио 1: Russian: 48 kHz, AC3, 2.0 ch, 192 kbps - MVO, Paramount Channel
Аудио 2: Russian: 48 kHz, AC3, 2.0 ch, 192 kbps - AVO, С. Рябов
Аудио 3: English: 48 kHz, EAC3, 2.0 ch, 224 kbps - Оригинал

Релиз от:


  • x264 [info]: frame I:1015 Avg QP:14.29 size: 166094
  • x264 [info]: frame P:34745 Avg QP:17.78 size: 63968
  • x264 [info]: frame B:122066 Avg QP:20.09 size: 20447

    =============================================

    Общее
    Уникальный идентификатор : 220689232654151135053930743653564653687 (0xA607333D815E5F99A6C7F0ACA4BFA077)
    Полное имя : Уилл.Пэнни.1967.WEB-DLRip.720p.KORSAR.mkv
    Формат : Matroska
    Версия формата : Version 2
    Размер файла : 5,00 Гбайт
    Продолжительность : 1 ч. 49 м.
    Общий поток : 6523 Кбит/сек
    Дата кодирования : UTC 2017-08-28 06:46:33
    Программа кодирования : mkvmerge v5.8.0 ('No Sleep / Pillow') built on Sep 2 2012 15:37:04
    Библиотека кодирования : libebml v1.2.3 + libmatroska v1.3.0

    Видео
    Идентификатор : 1
    Формат : AVC
    Формат/Информация : Advanced Video Codec
    Профиль формата : High@L4.1
    Параметр CABAC формата : Да
    Параметр ReFrames формата : 9 кадров
    Идентификатор кодека : V_MPEG4/ISO/AVC
    Продолжительность : 1 ч. 49 м.
    Битрейт : 5913 Кбит/сек
    Ширина : 1280 пикселей
    Высота : 720 пикселей
    Соотношение сторон : 16:9
    Режим частоты кадров : Постоянный
    Частота кадров : 23,976 (24000/1001) кадра/сек
    Цветовое пространство : YUV
    Субдискретизация насыщенности : 4:2:0
    Битовая глубина : 8 бит
    Тип развёртки : Прогрессивная
    Бит/(Пиксели*Кадры) : 0.268
    Размер потока : 4,43 Гбайт (89%)
    Заголовок : RIP | MZMA
    Библиотека кодирования : x264 core 148 r2638 7599210
    Настройки программы : cabac=1 / ref=9 / deblock=1:-2:-2 / analyse=0x3:0x113 / me=umh / subme=11 / psy=1 / psy_rd=1.00:0.00 / mixed_ref=1 / me_range=48 / chroma_me=1 / trellis=2 / 8x8dct=1 / cqm=0 / deadzone=21,11 / fast_pskip=0 / chroma_qp_offset=-2 / threads=6 / lookahead_threads=1 / sliced_threads=0 / nr=0 / decimate=0 / interlaced=0 / bluray_compat=0 / constrained_intra=0 / bframes=16 / b_pyramid=2 / b_adapt=2 / b_bias=0 / direct=3 / weightb=1 / open_gop=0 / weightp=2 / keyint=250 / keyint_min=23 / scenecut=40 / intra_refresh=0 / rc_lookahead=60 / rc=2pass / mbtree=1 / bitrate=5913 / ratetol=1.0 / qcomp=0.60 / qpmin=0 / qpmax=69 / qpstep=4 / cplxblur=20.0 / qblur=0.5 / vbv_maxrate=50000 / vbv_bufsize=62500 / nal_hrd=none / filler=0 / ip_ratio=1.40 / aq=1:1.00
    Язык : English
    Default : Да
    Forced : Нет
    Цветовой диапазон : Limited
    Основные цвета : BT.709
    Характеристики трансфера : BT.709
    Коэффициенты матрицы : BT.709

    Аудио #1
    Идентификатор : 2
    Формат : AC-3
    Формат/Информация : Audio Coding 3
    Параметр Endianness формата : Big
    Идентификатор кодека : A_AC3
    Продолжительность : 1 ч. 49 м.
    Вид битрейта : Постоянный
    Битрейт : 192 Кбит/сек
    Каналы : 2 канала
    Расположение каналов : Front: L R
    Частота : 48,0 КГц
    Частота кадров : 31,250 кадров/сек (1536 spf)
    Битовая глубина : 16 бит
    Метод сжатия : С потерями
    Размер потока : 151 Мбайт (3%)
    Заголовок : MVO | Paramount Channel
    Язык : Russian
    Default : Да
    Forced : Нет

    Аудио #2
    Идентификатор : 3
    Формат : AC-3
    Формат/Информация : Audio Coding 3
    Параметр Endianness формата : Big
    Идентификатор кодека : A_AC3
    Продолжительность : 1 ч. 49 м.
    Вид битрейта : Постоянный
    Битрейт : 192 Кбит/сек
    Каналы : 2 канала
    Расположение каналов : Front: L R
    Частота : 48,0 КГц
    Частота кадров : 31,250 кадров/сек (1536 spf)
    Битовая глубина : 16 бит
    Метод сжатия : С потерями
    Размер потока : 151 Мбайт (3%)
    Заголовок : AVO | С. Рябов
    Язык : Russian
    Default : Нет
    Forced : Нет

    Аудио #3
    Идентификатор : 4
    Формат : E-AC-3
    Формат/Информация : Enhanced Audio Coding 3
    Параметр Endianness формата : Big
    Идентификатор кодека : A_EAC3
    Продолжительность : 1 ч. 49 м.
    Вид битрейта : Постоянный
    Битрейт : 224 Кбит/сек
    Каналы : 2 канала
    Расположение каналов : Front: L R
    Частота : 48,0 КГц
    Частота кадров : 187,500 кадров/сек (256 spf)
    Метод сжатия : С потерями
    Размер потока : 176 Мбайт (3%)
    Заголовок : Original
    Язык : English
    Default : Нет
    Forced : Нет

    Текст
    Идентификатор : 5
    Формат : UTF-8
    Идентификатор кодека : S_TEXT/UTF8
    Идентификатор кодека/Информация : UTF-8 Plain Text
    Язык : English
    Default : Нет
    Forced : Нет

    Меню
    00:00:00.000 : en:Chapter 1
    00:06:58.056 : en:Chapter 2
    00:14:41.394 : en:Chapter 3
    00:22:28.402 : en:Chapter 4
    00:34:51.853 : en:Chapter 5
    00:40:40.660 : en:Chapter 6
    00:50:06.308 : en:Chapter 7
    01:00:03.571 : en:Chapter 8
    01:10:09.594 : en:Chapter 9
    01:23:30.727 : en:Chapter 10
    01:32:16.336 : en:Chapter 11
    01:40:38.421 : en:Chapter 12
  • pb.wtf



    Скачать Уилл Пэнни через торрент https://i3.imageban.ru/out/2019/07/10/06d57d90ac6b4648ec53fd286717c28e.png Скачать фильм Уилл Пэнни через торрент бесплантно в хорошем качестве Описание: Снятый в конце 60-х "Уилл Пенни" стал, быть может, первым вестерном, который не ностальгировал по прошлому, оплакивал будущее или ... 5 10 1
    Info! Золотая раздача, скачанное не засчитывается.
    Торрент: Зарегистрирован [2019-07-13 11:11] · скачан: 11 раз
    Статус: √ проверено
    Размер: 5 GB
    Как cкачать? Как скачать Уилл Пэнни через торрент | qTorrent

    % Раздел Тема Автор DL S | L
    Классика зарубежного кино [ 10.33 GB ] Уилл Пэнни / Will Penny [1967 WEB-DL 1080p] MVO + AVO - KORSAR kisa1980 Скачать
    2 | 0

    28-11-2019 20:33  

    Отключить всю рекламу на сайте

      Дорогой пользователь! Огромная просьба, поблагодарите релизера, оцените раздачу и оставьте свои комментарий, если Вы скачали Уилл Пэнни через торрент бесплатно! Внесите свою лепту в развитие PiratBit!
      Комментировать посты могут только пользователи прошедшие не сложную регистрацию
      Показать сообщения:    

      Уилл Пэнни через торрент
      Скачать бесплатно Уилл Пэнни
      Уилл Пэнни скачать торрент
      Уилл Пэнни смотреть онлайн
      Cкачать фильм Уилл Пэнни бесплатно
      Уилл Пэнни скачать торрент в хорошем качестве
      Уилл Пэнни смотреть онлайн бесплатно в хорошем качестве


      Вы не можете начинать темы
      Вы не можете отвечать на сообщения
      Вы не можете редактировать свои сообщения
      Вы не можете удалять свои сообщения
      Вы не можете голосовать в опросах
      Вы не можете прикреплять файлы к сообщениям
      Вы можете скачивать файлы