Ссылка на приватное зеркало нашего сайта всего за 1$. Внимание количество ограничено!!!

2 сезон

iTunes

1 сезон

1

2 сезон

2 сезон

iTunes

1 сезон

RePack

30

Ultimate

ВАЖНО

ИГРА 18+

pack

RePack

MK11
pack

Забери бонус

RePack

jed

!!Акция!!

Alien_Rage

RePack

fifa19

RePack

Assassins Creed: Odyssey

RePack

NEED FOR SPEED™ PAYBACK

4 сезон

9 сезон

Бесстыжие 9 сезон

Все сериалы

все сериалы на PB.wtf

RePack

FAR CRY 5
  

Влacть огня / Reign of Fire (Роб Боумен) [2002, фантастика, боевик, триллер, BDRemux 1080p] DUB + DVO + MVO + 2xAVO pb.wtf

Влacть огня через торрент pb.wtf

Размер: 34.72 GB | Добавлен: 1 год 4 мес. назад | Торрент скачан:7 раз
Скачать  

13-07-2019 12:59 Влacть огня Скачать торрент  

Влacть огня / Reign of Fire««Они не хотят делить планету с кем-либо»»
Год выпуска: 2002
Страна: США, Великобритания, Ирландия
Жанр: фантастика, боевик, триллер, фэнтези
Продолжительность: 01:41:58
Перевод: Дублированный, профессиональный многоголосый, профессиональный двухголосый, авторский
Субтитры: русские (R5, Mike Smyslov, Teodorik), английские
Режиссер: Роб Боумен
В ролях:

Кристиан Бэйл (Quinn Abercromby), Мэттью МакКонахи (Denton Van Zan), Изабелла Скорупко (Alex Jensen), Джерард Батлер (Creedy), Скотт Моттер (Jared Wilke), Дэвид Кеннеди (Eddie Stax), Александр Сиддиг (Ajay), Нед Деннехи (Barlow), Рори Кинэн (Devon), Теренс Мэйнард (Gideon), Даг Кокл (Goosh), Рэндолл Карлтон (Burke (Tito))
Описание:
2020 год. Планета во власти жестоких огнедышащих драконов, восставших из небытия из-за нелепой оплошности людей. Немногие обитатели сожжённого дотла Лондона, среди которых - бесстрашный воин Куинн, ютятся под землёй, тщетно противостоя всё увеличивающимся ордам голодных и мстительных тварей. И лишь появление охотников на драконов под предводительством отважного Ван Зана вселяет в них надежду. Вскоре они узнают о единственном самце, продолжателе всего драконьего рода, и теперь только от Ван Зана и Куинна зависит, смогут ли они победить чудовище, чтобы спасти человечество от полного вымирания.
Рейтинг:

MPAA: PG-13 - Детям до 13 лет просмотр не желателен
Качество: BDRemux 1080p
Формат: MKV
Видео: MPEG-4 AVC / 36984 kbps / 1920x1080 / 23,976 fps / 16:9 / High Profile 4.1
Аудио 1: Russian DTS / 5.1 / 48 kHz / 768 kbps / 24-bit |Dub, R5|
Аудио 2: Russian DTS-HD Master Audio / 5.1 / 48 kHz / 2368 kbps / 16-bit (DTS Core: 5.1 / 48 kHz / 1509 kbps / 16-bit) |Dub, Custom|
Аудио 3: Russian DTS-HD Master Audio / 5.1 / 48 kHz / 2390 kbps / 16-bit (DTS Core: 5.1 / 48 kHz / 1509 kbps / 16-bit) |DVO, П. Гланц и И. Королёва|
Аудио 4: Russian AC3 / 2.0 / 48 kHz / 192 kbps / 16 bits |MVO, Ren-TV|
Аудио 5: Russian DTS-HD Master Audio / 5.1 / 48 kHz / 2178 kbps / 16-bit (DTS Core: 5.1 / 48 kHz / 1509 kbps / 16-bit) |А. Гаврилов|
Аудио 6: Russian DTS / 5.1 / 48 kHz / 1510 kbps / 16-bit |С. Визгунов|
Аудио 7: English Dolby TrueHD Audio / 5.1 / 48 kHz / 1754 kbps / 16-bit |original|
Аудио 8: English AC3 Embedded: 5.1 / 48 kHz / 640 kbps / DN -4dB |original|
Навигация по главам: есть

Общее
Уникальный идентификатор : 47763893405676238607313023447692164904 (0x23EEFDC305A8CA4D09A74FD118EB3F28)
Полное имя : G:\HD\Влacть огня.2002.Blu-Ray.Remux.(1080p).mkv
Формат : Matroska
Версия формата : Version 4
Размер файла : 34,7 Гбайт
Продолжительность : 1 ч. 41 м.
Режим общего битрейта : Переменный
Общий поток : 48,8 Мбит/сек
Дата кодирования : UTC 2019-06-30 09:24:14
Программа кодирования : mkvmerge v35.0.0 ('All The Love In The World') 64-bit
Библиотека кодирования : libebml v1.3.9 + libmatroska v1.5.2
Attachments : poster.jpg

Видео
Идентификатор : 1
Формат : AVC
Формат/Информация : Advanced Video Codec
Профиль формата : High@L4.1
Настройки формата : CABAC / 4 Ref Frames
Параметр CABAC формата : Да
Параметр RefFrames формата : 4 кадра
Идентификатор кодека : V_MPEG4/ISO/AVC
Продолжительность : 1 ч. 41 м.
Вид битрейта : Переменный
Битрейт : 36,9 Мбит/сек
Максимальный битрейт : 38,0 Мбит/сек
Ширина : 1920 пикселей
Высота : 1080 пикселей
Соотношение сторон : 16:9
Режим частоты кадров : Постоянный
Частота кадров : 23,976 (24000/1001) кадра/сек
Цветовое пространство : YUV
Субдискретизация насыщенности : 4:2:0
Битовая глубина : 8 бит
Тип развёртки : Прогрессивная
Бит/(Пиксели*Кадры) : 0.743
Размер потока : 26,3 Гбайт (76%)
Default : Да
Forced : Нет
Цветовой диапазон : Limited
Основные цвета : BT.709
Характеристики трансфера : BT.709
Коэффициенты матрицы : BT.709

Аудио #1
Идентификатор : 2
Формат : DTS
Формат/Информация : Digital Theater Systems
Идентификатор кодека : A_DTS
Продолжительность : 1 ч. 41 м.
Вид битрейта : Постоянный
Битрейт : 768 Кбит/сек
Каналы : 6 каналов
Channel layout : C L R Ls Rs LFE
Частота : 48,0 КГц
Частота кадров : 93,750 кадра/сек (512 SPF)
Битовая глубина : 24 бит
Метод сжатия : С потерями
Размер потока : 560 Мбайт (2%)
Заголовок : Dub, R5
Язык : Russian
Default : Да
Forced : Нет

Аудио #2
Идентификатор : 3
Формат : DTS XLL
Формат/Информация : Digital Theater Systems
Коммерческое название : DTS-HD Master Audio
Идентификатор кодека : A_DTS
Продолжительность : 1 ч. 41 м.
Вид битрейта : Переменный
Битрейт : 2368 Кбит/сек
Каналы : 6 каналов
Channel layout : C L R Ls Rs LFE
Частота : 48,0 КГц
Частота кадров : 93,750 кадра/сек (512 SPF)
Битовая глубина : 16 бит
Метод сжатия : Без потерь
Размер потока : 1,69 Гбайт (5%)
Заголовок : Dub, Custom
Язык : Russian
Default : Нет
Forced : Нет

Аудио #3
Идентификатор : 4
Формат : DTS XLL
Формат/Информация : Digital Theater Systems
Коммерческое название : DTS-HD Master Audio
Идентификатор кодека : A_DTS
Продолжительность : 1 ч. 41 м.
Вид битрейта : Переменный
Битрейт : 2390 Кбит/сек
Каналы : 6 каналов
Channel layout : C L R Ls Rs LFE
Частота : 48,0 КГц
Частота кадров : 93,750 кадра/сек (512 SPF)
Битовая глубина : 16 бит
Метод сжатия : Без потерь
Размер потока : 1,70 Гбайт (5%)
Заголовок : DVO, П. Гланц и И. Королёва
Язык : Russian
Default : Нет
Forced : Нет

Аудио #4
Идентификатор : 5
Формат : AC-3
Формат/Информация : Audio Coding 3
Коммерческое название : Dolby Digital
Идентификатор кодека : A_AC3
Продолжительность : 1 ч. 41 м.
Вид битрейта : Постоянный
Битрейт : 128 Кбит/сек
Каналы : 1 канал
Channel layout : C
Частота : 48,0 КГц
Частота кадров : 31,250 кадров/сек (1536 SPF)
Битовая глубина : 16 бит
Метод сжатия : С потерями
Размер потока : 93,3 Мбайт (0%)
Заголовок : MVO, Ren-TV
Язык : Russian
ServiceKind/String : Complete Main
Default : Нет
Forced : Нет

Аудио #5
Идентификатор : 6
Формат : DTS XLL
Формат/Информация : Digital Theater Systems
Коммерческое название : DTS-HD Master Audio
Идентификатор кодека : A_DTS
Продолжительность : 1 ч. 41 м.
Вид битрейта : Переменный
Битрейт : 2178 Кбит/сек
Каналы : 6 каналов
Channel layout : C L R Ls Rs LFE
Частота : 48,0 КГц
Частота кадров : 93,750 кадра/сек (512 SPF)
Битовая глубина : 16 бит
Метод сжатия : Без потерь
Размер потока : 1,55 Гбайт (4%)
Заголовок : А. Гаврилов
Язык : Russian
Default : Нет
Forced : Нет

Аудио #6
Идентификатор : 7
Формат : DTS
Формат/Информация : Digital Theater Systems
Идентификатор кодека : A_DTS
Продолжительность : 1 ч. 41 м.
Вид битрейта : Постоянный
Битрейт : 1510 Кбит/сек
Каналы : 6 каналов
Channel layout : C L R Ls Rs LFE
Частота : 48,0 КГц
Частота кадров : 93,750 кадра/сек (512 SPF)
Битовая глубина : 16 бит
Метод сжатия : С потерями
Размер потока : 1,08 Гбайт (3%)
Заголовок : С. Визгунов
Язык : Russian
Default : Нет
Forced : Нет

Аудио #7
Идентификатор : 8
Формат : MLP FBA
Формат/Информация : Meridian Lossless Packing FBA
Коммерческое название : Dolby TrueHD
Идентификатор кодека : A_TRUEHD
Продолжительность : 1 ч. 41 м.
Вид битрейта : Переменный
Битрейт : 1754 Кбит/сек
Максимальный битрейт : 3222 Кбит/сек
Каналы : 6 каналов
Channel layout : L R C LFE Ls Rs
Частота : 48,0 КГц
Частота кадров : 1200,000 кадров/сек (40 SPF)
Метод сжатия : Без потерь
Размер потока : 1,25 Гбайт (4%)
Язык : English
Default : Нет
Forced : Нет

Аудио #8
Идентификатор : 9
Формат : AC-3
Формат/Информация : Audio Coding 3
Коммерческое название : Dolby Digital
Идентификатор кодека : A_AC3
Продолжительность : 1 ч. 41 м.
Вид битрейта : Постоянный
Битрейт : 640 Кбит/сек
Каналы : 6 каналов
Channel layout : L R C LFE Ls Rs
Частота : 48,0 КГц
Частота кадров : 31,250 кадров/сек (1536 SPF)
Битовая глубина : 16 бит
Метод сжатия : С потерями
Размер потока : 467 Мбайт (1%)
Язык : English
ServiceKind/String : Complete Main
Default : Нет
Forced : Нет

Текст #1
Идентификатор : 10
Формат : UTF-8
Идентификатор кодека : S_TEXT/UTF8
Идентификатор кодека/Информация : UTF-8 Plain Text
Продолжительность : 1 ч. 36 м.
Битрейт : 71 бит/сек
ElementCount : 859
Размер потока : 50,5 Кбайт (0%)
Заголовок : R5
Язык : Russian
Default : Нет
Forced : Нет

Текст #2
Идентификатор : 11
Формат : UTF-8
Идентификатор кодека : S_TEXT/UTF8
Идентификатор кодека/Информация : UTF-8 Plain Text
Продолжительность : 1 ч. 34 м.
Битрейт : 48 бит/сек
ElementCount : 746
Размер потока : 33,3 Кбайт (0%)
Заголовок : Mike Smyslov
Язык : Russian
Default : Нет
Forced : Нет

Текст #3
Идентификатор : 12
Формат : UTF-8
Идентификатор кодека : S_TEXT/UTF8
Идентификатор кодека/Информация : UTF-8 Plain Text
Продолжительность : 1 ч. 35 м.
Битрейт : 65 бит/сек
ElementCount : 889
Размер потока : 45,9 Кбайт (0%)
Заголовок : Teodorik
Язык : Russian
Default : Нет
Forced : Нет

Текст #4
Идентификатор : 13
Формат : UTF-8
Идентификатор кодека : S_TEXT/UTF8
Идентификатор кодека/Информация : UTF-8 Plain Text
Продолжительность : 1 ч. 34 м.
Битрейт : 37 бит/сек
ElementCount : 768
Размер потока : 25,7 Кбайт (0%)
Язык : English
Default : Нет
Forced : Нет

Меню
00:00:00.000 : :Chapter 01
00:10:24.206 : :Chapter 02
00:19:38.927 : :Chapter 03
00:25:18.975 : :Chapter 04
00:39:26.614 : :Chapter 05
00:50:45.292 : :Chapter 06
01:01:49.163 : :Chapter 07
01:10:08.913 : :Chapter 08
01:19:52.662 : :Chapter 09
01:29:41.209 : :Chapter 10
01:34:55.898 : :Chapter 11
01:41:55.943 : :Chapter 12
pb.wtf



Скачать Влacть огня через торрент https://a.radikal.ru/a24/1907/a0/18a34d6fb867.png Скачать фильм Влacть огня через торрент бесплантно в хорошем качестве Описание: 2020 год. Планета во власти жестоких огнедышащих драконов, восставших из небытия из-за нелепой оплошности людей. Немногие ... 10 10 8
Info! Серебряная раздача, засчитывается только 50% скачанного.
Торрент: Зарегистрирован [2019-07-13 12:59] · скачан: 7 раз
Статус: √ проверено
Размер: 34.72 GB
Как cкачать? Как скачать Влacть огня через торрент | qTorrent

28-11-2019 20:33  

Отключить всю рекламу на сайте

    Дорогой пользователь! Огромная просьба, поблагодарите релизера, оцените раздачу и оставьте свои комментарий, если Вы скачали Влacть огня через торрент бесплатно! Внесите свою лепту в развитие PiratBit!
    Комментировать посты могут только пользователи прошедшие не сложную регистрацию
    Показать сообщения:    

    Влacть огня через торрент
    Скачать бесплатно Влacть огня
    Влacть огня скачать торрент
    Влacть огня смотреть онлайн
    Cкачать фильм Влacть огня бесплатно
    Влacть огня скачать торрент в хорошем качестве
    Влacть огня смотреть онлайн бесплатно в хорошем качестве


    Вы не можете начинать темы
    Вы не можете отвечать на сообщения
    Вы не можете редактировать свои сообщения
    Вы не можете удалять свои сообщения
    Вы не можете голосовать в опросах
    Вы не можете прикреплять файлы к сообщениям
    Вы можете скачивать файлы