Ссылка на приватное зеркало нашего сайта всего за 1$. Внимание количество ограничено!!!

2 сезон

iTunes

1 сезон

1

2 сезон

2 сезон

iTunes

1 сезон

RePack

30

Ultimate

ВАЖНО

ИГРА 18+

pack

RePack

MK11
pack

Забери бонус

RePack

jed

!!Акция!!

Alien_Rage

RePack

fifa19

RePack

Assassins Creed: Odyssey

RePack

NEED FOR SPEED™ PAYBACK

4 сезон

9 сезон

Бесстыжие 9 сезон

Все сериалы

все сериалы на PB.wtf

RePack

FAR CRY 5
  

Кровь и вино / Blood and Wine (Боб Рейфелсон) [1996 г., триллер, драма, криминал, WEB-DLRip 720p] MVO + AVO - KORSAR pb.wtf

Кровь и вино через торрент pb.wtf

Размер: 3.71 GB | Добавлен: 1 год 4 мес. назад | Торрент скачан:10 раз
Скачать  

13-07-2019 13:17 Кровь и вино Скачать торрент  

Кровь и вино / Blood and Wine
Год выпуска: 1996
Страна: США
Жанр: Триллер, драма, криминал
Продолжительность: 01:40:55
Перевод: Профессиональный многоголосый, авторский одноголосый
Субтитры: Русские, английские
Режиссёр: Боб Рейфелсон
В ролях: Джек Николсон, Дженнифер Лопес, Стивен Дорфф, Джуди Дэвис, Майкл Кейн, Хэролд Перрино, Робин Питерсон, Майк Старр, Джон Сайц, Марк Маколей, Дэн Дэйли, Марта Веласко, Том Кристофер, Марио Эрнесто Санчез, Джон Хэкетт, Гектор Монтано, Ванесса Л. Эрнандез, Кармен Лопез, Энтони Короне, Джим Торрес Тауэрс, Глиц Монтано, Роберт Катрини
Описание: Торговец вином Алекс Гейтс пытается поддержать свой разваливающийся бизнес, совершив кражу бриллиантового ожерелья у одного из клиентов. В этом деле ему помогает любовница и взломщик сейфов. И все идет неплохо до тех пор, пока брошенная жена и пасынок не нарушают его планы и не скрываются вместе с добычей.

rating

Качество: WEB-DLRip 720p
Формат: MKV
Видео: MPEG-4 AVC, 3857 Кбит/сек, 1280x720, 23.976 кадра/сек
Аудио 1: AC3, 6 ch, 384 Кбит/сек | Русский, профессиональный (многоголосый закадровый) R5
Аудио 2: AC3, 6 ch, 384 Кбит/сек | Русский, авторский (одноголосый закадровый) Сергей Визгунов
Аудио 3: EAC3, 6 ch, 640 Кбит/сек | Английский, оригинал

Релиз от:


  • x264 [info]: frame I:948 Avg QP:13.64 size:106158
  • x264 [info]: frame P:39992 Avg QP:16.93 size: 36256
  • x264 [info]: frame B:104236 Avg QP:18.20 size: 13133

    ============================================

    Общее
    Уникальный идентификатор : 179650798715887131152981717309936574550 (0x87277C3B2DD831DC9F6D5ED9C6DF2056)
    Полное имя : Blood.and.Wine.1996.WEB-DLRip.720p.KORSAR.mkv
    Формат : Matroska
    Версия формата : Version 2
    Размер файла : 3,71 Гбайт
    Продолжительность : 1 ч. 40 м.
    Общий поток : 5268 Кбит/сек
    Дата кодирования : UTC 2017-06-26 06:40:46
    Программа кодирования : mkvmerge v5.8.0 ('No Sleep / Pillow') built on Sep 2 2012 15:37:04
    Библиотека кодирования : libebml v1.2.3 + libmatroska v1.3.0

    Видео
    Идентификатор : 1
    Формат : AVC
    Формат/Информация : Advanced Video Codec
    Профиль формата : High@L4.1
    Параметр CABAC формата : Да
    Параметр RefFrames формата : 9 кадров
    Идентификатор кодека : V_MPEG4/ISO/AVC
    Продолжительность : 1 ч. 40 м.
    Битрейт : 3857 Кбит/сек
    Ширина : 1280 пикселей
    Высота : 720 пикселей
    Соотношение сторон : 16:9
    Режим частоты кадров : Постоянный
    Частота кадров : 23,976 (24000/1001) кадра/сек
    Цветовое пространство : YUV
    Субдискретизация насыщенности : 4:2:0
    Битовая глубина : 8 бит
    Тип развёртки : Прогрессивная
    Бит/(Пиксели*Кадры) : 0.175
    Размер потока : 2,65 Гбайт (71%)
    Заголовок : RIP | MZMA
    Библиотека кодирования : x264 core 150 r2833kMod df79067
    Настройки программы : cabac=1 / ref=9 / deblock=1:-2:-2 / analyse=0x3:0x113 / me=umh / subme=11 / psy=1 / fade_compensate=0.00 / psy_rd=1.00:0.00 / mixed_ref=1 / me_range=48 / chroma_me=1 / trellis=2 / 8x8dct=1 / cqm=0 / deadzone=21,11 / fast_pskip=0 / chroma_qp_offset=-2 / threads=6 / lookahead_threads=1 / sliced_threads=0 / nr=0 / decimate=0 / interlaced=0 / bluray_compat=0 / constrained_intra=0 / bframes=16 / b_pyramid=2 / b_adapt=2 / b_bias=0 / direct=3 / weightb=1 / open_gop=0 / weightp=2 / keyint=250 / keyint_min=23 / scenecut=40 / intra_refresh=0 / rc_lookahead=60 / rc=2pass / mbtree=1 / bitrate=3857 / ratetol=1.0 / qcomp=0.60 / qpmin=0 / qpmax=69 / qpstep=4 / cplxblur=20.0 / qblur=0.5 / vbv_maxrate=50000 / vbv_bufsize=62500 / nal_hrd=none / filler=0 / ip_ratio=1.40 / aq=3:1.00
    Язык : English
    Default : Да
    Forced : Нет
    Цветовой диапазон : Limited
    Основные цвета : BT.709
    Характеристики трансфера : BT.709
    Коэффициенты матрицы : BT.709

    Аудио #1
    Идентификатор : 2
    Формат : AC-3
    Формат/Информация : Audio Coding 3
    Параметр Endianness формата : Big
    Идентификатор кодека : A_AC3
    Продолжительность : 1 ч. 40 м.
    Вид битрейта : Постоянный
    Битрейт : 384 Кбит/сек
    Каналы : 6 каналов
    Расположение каналов : Front: L C R, Side: L R, LFE
    Частота : 48,0 КГц
    Частота кадров : 31,250 кадров/сек (1536 SPF)
    Битовая глубина : 16 бит
    Метод сжатия : С потерями
    Размер потока : 277 Мбайт (7%)
    Заголовок : MVO | R5
    Язык : Russian
    Default : Да
    Forced : Нет

    Аудио #2
    Идентификатор : 3
    Формат : AC-3
    Формат/Информация : Audio Coding 3
    Параметр Endianness формата : Big
    Идентификатор кодека : A_AC3
    Продолжительность : 1 ч. 40 м.
    Вид битрейта : Постоянный
    Битрейт : 384 Кбит/сек
    Каналы : 6 каналов
    Расположение каналов : Front: L C R, Side: L R, LFE
    Частота : 48,0 КГц
    Частота кадров : 31,250 кадров/сек (1536 SPF)
    Битовая глубина : 16 бит
    Метод сжатия : С потерями
    Размер потока : 277 Мбайт (7%)
    Заголовок : AVO | С. Визгунов
    Язык : Russian
    Default : Нет
    Forced : Нет

    Аудио #3
    Идентификатор : 4
    Формат : E-AC-3
    Формат/Информация : Enhanced Audio Coding 3
    Параметр Endianness формата : Big
    Идентификатор кодека : A_EAC3
    Продолжительность : 1 ч. 40 м.
    Вид битрейта : Постоянный
    Битрейт : 640 Кбит/сек
    Каналы : 6 каналов
    Расположение каналов : Front: L C R, Side: L R, LFE
    Частота : 48,0 КГц
    Частота кадров : 187,500 кадров/сек (256 SPF)
    Метод сжатия : С потерями
    Задержка видео : 6 мс.
    Размер потока : 462 Мбайт (12%)
    Заголовок : Original
    Язык : English
    Default : Нет
    Forced : Нет

    Текст #1
    Идентификатор : 5
    Формат : UTF-8
    Идентификатор кодека : S_TEXT/UTF8
    Идентификатор кодека/Информация : UTF-8 Plain Text
    Язык : Russian
    Default : Нет
    Forced : Нет

    Текст #2
    Идентификатор : 6
    Формат : UTF-8
    Идентификатор кодека : S_TEXT/UTF8
    Идентификатор кодека/Информация : UTF-8 Plain Text
    Язык : English
    Default : Нет
    Forced : Нет

    Меню
    00:00:00.000 : en:Chapter 01
    00:04:55.077 : en:Chapter 02
    00:09:13.577 : en:Chapter 03
    00:18:12.545 : en:Chapter 04
    00:21:22.079 : en:Chapter 05
    00:31:06.413 : en:Chapter 06
    00:41:54.780 : en:Chapter 07
    00:47:25.180 : en:Chapter 08
    00:54:24.680 : en:Chapter 09
    01:02:13.047 : en:Chapter 10
    01:07:30.047 : en:Chapter 11
    01:16:24.180 : en:Chapter 12
    01:21:26.447 : en:Chapter 13
    01:28:28.914 : en:Chapter 14
    01:33:14.681 : en:Chapter 15
    01:36:51.582 : en:Chapter 16
  • pb.wtf



    Скачать Кровь и вино через торрент https://i1.imageban.ru/out/2018/10/09/52ea86944c4b718e9f327a3fb80c5d85.jpg Скачать фильм Кровь и вино через торрент бесплантно в хорошем качестве Описание: Торговец вином Алекс Гейтс пытается поддержать свой разваливающийся бизнес, совершив кражу бриллиантового ожерелья у одного из ... 9 10 2
    Info! Золотая раздача, скачанное не засчитывается.
    Торрент: Зарегистрирован [2019-07-13 13:17] · скачан: 10 раз
    Статус: √ проверено
    Размер: 3.71 GB
    Как cкачать? Как скачать Кровь и вино через торрент | qTorrent

    28-11-2019 20:33  

    Отключить всю рекламу на сайте

      Дорогой пользователь! Огромная просьба, поблагодарите релизера, оцените раздачу и оставьте свои комментарий, если Вы скачали Кровь и вино через торрент бесплатно! Внесите свою лепту в развитие PiratBit!
      Комментировать посты могут только пользователи прошедшие не сложную регистрацию
      Показать сообщения:    

      Кровь и вино через торрент
      Скачать бесплатно Кровь и вино
      Кровь и вино скачать торрент
      Кровь и вино смотреть онлайн
      Cкачать фильм Кровь и вино бесплатно
      Кровь и вино скачать торрент в хорошем качестве
      Кровь и вино смотреть онлайн бесплатно в хорошем качестве


      Вы не можете начинать темы
      Вы не можете отвечать на сообщения
      Вы не можете редактировать свои сообщения
      Вы не можете удалять свои сообщения
      Вы не можете голосовать в опросах
      Вы не можете прикреплять файлы к сообщениям
      Вы можете скачивать файлы