Ссылка на приватное зеркало нашего сайта всего за 1$. Внимание количество ограничено!!!

2 сезон

iTunes

1 сезон

1

2 сезон

2 сезон

iTunes

1 сезон

RePack

30

Ultimate

ВАЖНО

ИГРА 18+

pack

RePack

MK11
pack

Забери бонус

RePack

jed

!!Акция!!

Alien_Rage

RePack

fifa19

RePack

Assassins Creed: Odyssey

RePack

NEED FOR SPEED™ PAYBACK

4 сезон

9 сезон

Бесстыжие 9 сезон

Все сериалы

все сериалы на PB.wtf

RePack

FAR CRY 5
  

Хэппи / Happy / Сезон: 2 / Серии: 1-10 из 10 (Брайан Тейлор, Дэвид Петрарка) [2019, комедия, фэнтези, криминал, триллер, детектив, WEB-DL 720p] [DUB] (SDI Media) + [MVO] (LostFilm) pb.wtf

Хэппи через торрент pb.wtf

Размер: 18.99 GB | Добавлен: 1 год 4 мес. назад | Торрент скачан:28 раз
Скачать  

13-07-2019 15:39 Хэппи Скачать торрент  

Хэппи / Happy
Год выпуска: 2019
Страна: США, SyFy, Littleton Road, Universal Cable Productions
Жанр: Комедия, фэнтези, криминал, триллер, детектив
Продолжительность: ~ 00:48:00

Перевод 1: Профессиональный (дублированный) SDI Media
Перевод 2: Профессиональный (многоголосый закадровый) | LostFilm

Режиссёр: Брайан Тейлор, Дэвид Петрарка
В ролях: Кристофер Мелони, Рен Колли, Александр Джеймисон, Брайс Лоренцо, Майкл Мейзе, Лили Мирожник, Скотт Барик, Бен Коул, Данте Перейра-Олсон, Маттиас Себастьан Гарри

Описание: Трепещите, ваши глаза будут снова осквернены: на экраны возвращается бывший коп, действующий киллер и алкоголик 80 уровня Ник Сакс со своим безумным четвероногим другом — единорогом Хэппи. Драки пенсионеров, долбанутые пасхальные кролики, взрывающиеся монашки и прочее чистое безумие ждет тех, кто отважится посмотреть второй сезон черной комедии «Хэппи!». В новом сезоне Нику и его веселому другу предстоит «поднять Пасху с колен». Создатели одного из самых безбашенных сериалов на современном ТВ пообещали, что новые серии заведут нас «туда, где солнце не светит», и попросили детей не смотреть это под кайфом. Впрочем, судя по отзывам новичков актерского состава, «Хэппи!» сам по себе может оказаться неплохим допингом, после которого особо впечатлительным натурам понадобится доза успокоительного...



Качество: WEB-DL 720p
Формат: MKV
Видео: AVC, ~ 3850 kbps, 1280x720 (16:9), 23.976 fps
Аудио 1: AC3, 48,0 КГц, 6 ch, 640 kbps - Rus - SDI Media
Аудио 2: AC3, 48,0 КГц, 6 ch, 640 kbps - Rus - LostFilm
Аудио 3: AC3, 48,0 КГц, 6 ch, 640 kbps - Eng
Субтитры: Русские (Full | ВНИМАНИЕ: Присутствует ненормативная лексика), английские (SDH)
Реклама: Отсутствует

Спасибо:
2-01. Война на Пасху / The War on Easter (27.03.2019)
2-02. Таллахасси / Tallahassee (03.04.2019)
2-03. Некоторым раскаяние не повредит / Some Girls Need A Lot Of Repenting (10.04.2019)
2-04. Блицкриг!!! / Blitzkrieg!!! (17.04.2019)
2-05. 19 часов и 13 минут / 19 Hours and 13 Minutes (24.04.2019)
2-06. Развратопалузза / Pervapalozza (01.05.2019)
2-07. Арло и Мари / Arlo and Marie (08.05.2019)
2-08. Друг смерти / A Friend of Death (15.05.2019)
2-09. Пять куриных наггетсов и пистолет / Five Chicken Fingers and a Gun (22.05.2019)
2-10. Воскрешение / Resurrection (29.05.2019)
Общее
Уникальный идентификатор : 235991240330262793374411577825286214204 (0xB18A427789DF8BE5BAB0F0F6F954D23C)
Полное имя : Хэппи. 2 сезон. 2019. DUB. MVO. EniaHD (WEB-DL 720p)\Happy.s02e01. Война на Пасху.mkv
Формат : Matroska
Версия формата : Version 2
Размер файла : 1,99 Гбайт
Продолжительность : 48 м. 27 с.
Общий поток : 5870 Кбит/сек
Название фильма : The War on Easter
Дата кодирования : UTC 2019-06-08 17:25:47
Программа кодирования : mkvmerge v6.9.1 ('Blue Panther') 32bit built on Apr 18 2014 18:15:44
Библиотека кодирования : libebml v1.3.0 + libmatroska v1.4.1

Видео
Идентификатор : 1
Формат : AVC
Формат/Информация : Advanced Video Codec
Профиль формата : High@L3.1
Настройки формата : CABAC / 4 Ref Frames
Параметр CABAC формата : Да
Параметр RefFrames формата : 4 кадра
Идентификатор кодека : V_MPEG4/ISO/AVC
Продолжительность : 48 м. 27 с.
Вид битрейта : Постоянный
Битрейт : 3833 Кбит/сек
Номинальный битрейт : 6000 Кбит/сек
Ширина : 1280 пикселей
Высота : 720 пикселей
Соотношение сторон : 16:9
Режим частоты кадров : Постоянный
Частота кадров : 23,976 (24000/1001) кадра/сек
Цветовое пространство : YUV
Субдискретизация насыщенности : 4:2:0
Битовая глубина : 8 бит
Тип развёртки : Прогрессивная
Бит/(Пиксели*Кадры) : 0.173
Размер потока : 1,30 Гбайт (65%)
Язык : English
Default : Да
Forced : Нет
Цветовой диапазон : Limited
Основные цвета : BT.709
Характеристики трансфера : BT.709
Коэффициенты матрицы : BT.709

Аудио #1
Идентификатор : 2
Формат : AC-3
Формат/Информация : Audio Coding 3
Коммерческое название : Dolby Digital
Идентификатор кодека : A_AC3
Продолжительность : 48 м. 27 с.
Вид битрейта : Постоянный
Битрейт : 640 Кбит/сек
Каналы : 6 каналов
Channel layout : L R C LFE Ls Rs
Частота : 48,0 КГц
Частота кадров : 31,250 кадров/сек (1536 SPF)
Битовая глубина : 16 бит
Метод сжатия : С потерями
Размер потока : 222 Мбайт (11%)
Заголовок : SDI Media
Язык : Russian
ServiceKind/String : Complete Main
Default : Да
Forced : Нет

Аудио #2
Идентификатор : 3
Формат : AC-3
Формат/Информация : Audio Coding 3
Коммерческое название : Dolby Digital
Идентификатор кодека : A_AC3
Продолжительность : 48 м. 27 с.
Вид битрейта : Постоянный
Битрейт : 640 Кбит/сек
Каналы : 6 каналов
Channel layout : L R C LFE Ls Rs
Частота : 48,0 КГц
Частота кадров : 31,250 кадров/сек (1536 SPF)
Битовая глубина : 16 бит
Метод сжатия : С потерями
Размер потока : 222 Мбайт (11%)
Заголовок : LostFilm
Язык : Russian
ServiceKind/String : Complete Main
Default : Нет
Forced : Нет

Аудио #3
Идентификатор : 4
Формат : AC-3
Формат/Информация : Audio Coding 3
Коммерческое название : Dolby Digital
Идентификатор кодека : A_AC3
Продолжительность : 48 м. 27 с.
Вид битрейта : Постоянный
Битрейт : 640 Кбит/сек
Каналы : 6 каналов
Channel layout : L R C LFE Ls Rs
Частота : 48,0 КГц
Частота кадров : 31,250 кадров/сек (1536 SPF)
Битовая глубина : 16 бит
Метод сжатия : С потерями
Размер потока : 222 Мбайт (11%)
Язык : English
ServiceKind/String : Complete Main
Default : Нет
Forced : Нет

Текст #1
Идентификатор : 5
Формат : UTF-8
Идентификатор кодека : S_TEXT/UTF8
Идентификатор кодека/Информация : UTF-8 Plain Text
Язык : Russian
Default : Нет
Forced : Нет

Текст #2
Идентификатор : 6
Формат : UTF-8
Идентификатор кодека : S_TEXT/UTF8
Идентификатор кодека/Информация : UTF-8 Plain Text
Заголовок : SDH
Язык : English
Default : Нет
Forced : Нет
скриншот  скриншот  скриншот  
pb.wtf



Скачать Хэппи через торрент https://funkyimg.com/i/2SLni.jpg Скачать фильм Хэппи через торрент бесплантно в хорошем качестве Описание: Трепещите, ваши глаза будут снова осквернены: на экраны возвращается бывший коп, действующий киллер и алкоголик 80 уровня Ник ... 5 10 1
Торрент: Зарегистрирован [2019-07-13 15:39] · скачан: 28 раз
Статус: √ проверено
Размер: 18.99 GB
Как cкачать? Как скачать Хэппи через торрент | qTorrent

% Раздел Тема Автор DL S | L
Зарубежные сериалы [ 30.13 GB ] Хэппи / Happy! / Сезон: 2 / Серии: 1-10 из 10 [2019 WEB-DL 1080p] DVO [Кубик в Кубе] bober100 Скачать
1 | 0
Зарубежные сериалы [ 29.34 GB ] Хэппи / Happy! / Сезон: 2 / Серии: 1-10 из 10 [2019 WEB-DL 1080p] MVO [TVShows] bober100 Скачать
1 | 0
Зарубежные сериалы [ 4.29 GB ] Хэппи / Happy! / Сезон 2 / Серия 1-9 из 10 [2019 WEBRip-AVC] [MVO] killermax2013 Скачать
1 | 0
Зарубежные сериалы [ 5.57 GB ] Хэппи! / Happy! / Сезон: 2 / Серии: 1-10 из 10 [2019 WEB-DLRip] MVO [Good People] bober100 Скачать
1 | 0
Зарубежные сериалы [ 1.68 GB ] Хэппи / Happy! / Сезон: 2 / Серии: 1 из 10 [2019 WEB-DL 720p] MVO [NewStudio] bober100 Скачать
1 | 0
Зарубежные сериалы [ 3.01 GB ] Хэппи / Happy! / Сезон: 2 / Серии: 1 из 10 [2019 WEB-DL 1080p] MVO [NewStudio] bober100 Скачать
1 | 0
Зарубежные сериалы [ 17 GB ] Хэппи! / Happy! / Сезон: 2 / Серии: 1-10 из 10 [2019 WEBRip 720p] MVO [Good People] bober100 Скачать
1 | 0

28-11-2019 20:33  

Отключить всю рекламу на сайте

    Дорогой пользователь! Огромная просьба, поблагодарите релизера, оцените раздачу и оставьте свои комментарий, если Вы скачали Хэппи через торрент бесплатно! Внесите свою лепту в развитие PiratBit!
    Комментировать посты могут только пользователи прошедшие не сложную регистрацию
    Показать сообщения:    

    Хэппи через торрент
    Скачать бесплатно Хэппи
    Хэппи скачать торрент
    Хэппи смотреть онлайн
    Cкачать фильм Хэппи бесплатно
    Хэппи скачать торрент в хорошем качестве
    Хэппи смотреть онлайн бесплатно в хорошем качестве


    Вы не можете начинать темы
    Вы не можете отвечать на сообщения
    Вы не можете редактировать свои сообщения
    Вы не можете удалять свои сообщения
    Вы не можете голосовать в опросах
    Вы не можете прикреплять файлы к сообщениям
    Вы можете скачивать файлы