Ссылка на приватное зеркало всего за 1$. Внимание количество ограничено!!!

iTunes

1+1

iTunes

мы

MV0

1

WEB-DLRip

Джокер

Пифагор

Ведьмак / The Witcher сериал

iTunes

ПШазам

iTunes

Оно 2

iTunes

30
pack

Вам бонус

ВАЖНО

!!Акция!!

Alien_RageХит недели

RePack

Resident Evil 21

ИГРА 18+

pack

RePack

jed

!!Акция!!

Alien_Rage

RePack

fifa19

RePack

Assassins Creed: Odyssey

RePack

NEED FOR SPEED™ PAYBACK

4 сезон

9 сезон

Бесстыжие 9 сезон

Все сериалы

все сериалы на PB.wtf

RePack

FAR CRY 5
  

Серенада солнечной долины / Sun Valley Serenade (Х. Брюс Хамберстоун) [1941 г., мюзикл, мелодрама, комедия, WEB-DLRip 720p] DUB + MVO + DVO - KORSAR pb.wtf

Серенада солнечной долины через торрент pb.wtf

Размер: 5.48 GB | Добавлен: 7 мес. назад | Торрент скачан:2 раза
Скачать  

13-07-2019 17:17 Серенада солнечной долины Скачать торрент  

Серенада солнечной долины / Sun Valley Serenade
Год выпуска: 1941
Страна: США
Жанр: Мюзикл, мелодрама, комедия
Продолжительность: 01:26:00
Перевод: Дублированный, профессиональный многоголосый, профессиональный двухголосый
Субтитры: Русские, английские
Режиссёр: Х. Брюс Хамберстоун
В ролях: Гленн Миллер, Соня Хени, Джон Пейн, Линн Бари, Джоан Дэвис, Уильям Б. Дэвидсон, Мел Руйк, Уильям Форрест, Дороти Дэндридж, Милтон Берл
Описание: Веселая музыкальная комедия, в которой героиня Сони Хени в составе оркестра Глена Миллера отправляется в Солнечную долину. Забавные приключения, комедийные ситуации и великолепные композиции Глена Миллера легли в основу этого фильма, который первоначально был задуман как рекламный ролик для музыкальной темы, но усилиями Брюса Хэмберстона был доведен до размера полнометражного кино. Мистера Морри, владельца горнолыжного курорта в великолепной солнечной долине, для нового сезона ищет модный джазовый оркестр «с именем».

rating

Качество: WEB-DLRip 720p
Формат: MKV
Видео: MPEG-4 AVC, 8200 Кбит/сек, 994x720, 23.976 кадра/сек
Аудио 1: AC3, 2 ch, 256 Кбит/сек | Русский, DUB, Советский дубляж
Аудио 2: AC3, 2 ch, 224 Кбит/сек | Русский, MVO, "Видеобаза"/"Деваль"
Аудио 3: AC3, 2 ch, 224 Кбит/сек | Русский, DVO, ВГТРК "Культура"
Аудио 4: EAC3, 2 ch, 224 Кбит/сек | Английский, Оригинал

Релиз от:


  • x264 [info]: frame I:706 Avg QP:16.76 size:132668
  • x264 [info]: frame P:26956 Avg QP:19.47 size: 69662
  • x264 [info]: frame B:96049 Avg QP:21.99 size: 34535

    ============================================

    Общее
    Уникальный идентификатор : 187527020572667284297265119692402433761 (0x8D1463F33CD72598A2374AB0A81F9EE1)
    Полное имя : Серенада.солнечной.долины.1941.WEB-DLRip.720p.KORSAR.mkv
    Формат : Matroska
    Версия формата : Version 2
    Размер файла : 5,48 Гбайт
    Продолжительность : 1 ч. 25 м.
    Общий поток : 9131 Кбит/сек
    Дата кодирования : UTC 2017-11-18 16:35:50
    Программа кодирования : mkvmerge v5.8.0 ('No Sleep / Pillow') built on Sep 2 2012 15:37:04
    Библиотека кодирования : libebml v1.2.3 + libmatroska v1.3.0

    Видео
    Идентификатор : 1
    Формат : AVC
    Формат/Информация : Advanced Video Codec
    Профиль формата : High@L4.1
    Настройки формата : CABAC / 11 Ref Frames
    Параметр CABAC формата : Да
    Параметр RefFrames формата : 11 кадров
    Идентификатор кодека : V_MPEG4/ISO/AVC
    Продолжительность : 1 ч. 25 м.
    Битрейт : 8200 Кбит/сек
    Ширина : 994 пикселя
    Высота : 720 пикселей
    Соотношение сторон : 1,381
    Режим частоты кадров : Постоянный
    Частота кадров : 23,976 (24000/1001) кадра/сек
    Цветовое пространство : YUV
    Субдискретизация насыщенности : 4:2:0
    Битовая глубина : 8 бит
    Тип развёртки : Прогрессивная
    Бит/(Пиксели*Кадры) : 0.478
    Размер потока : 4,82 Гбайт (88%)
    Заголовок : RIP | MZMA
    Библиотека кодирования : x264 core 152 r2851kMod ba24899
    Настройки программы : cabac=1 / ref=11 / deblock=1:-2:-2 / analyse=0x3:0x113 / me=umh / subme=11 / psy=1 / fade_compensate=0.00 / psy_rd=1.00:0.00 / mixed_ref=1 / me_range=48 / chroma_me=1 / trellis=2 / 8x8dct=1 / cqm=0 / deadzone=21,11 / fast_pskip=0 / chroma_qp_offset=-2 / threads=6 / lookahead_threads=1 / sliced_threads=0 / nr=0 / decimate=0 / interlaced=0 / bluray_compat=0 / constrained_intra=0 / bframes=16 / b_pyramid=2 / b_adapt=2 / b_bias=0 / direct=3 / weightb=1 / open_gop=0 / weightp=2 / keyint=240 / keyint_min=23 / scenecut=40 / intra_refresh=0 / rc_lookahead=60 / rc=2pass / mbtree=1 / bitrate=8200 / ratetol=1.0 / qcomp=0.60 / qpmin=0 / qpmax=69 / qpstep=4 / cplxblur=20.0 / qblur=0.5 / vbv_maxrate=50000 / vbv_bufsize=62500 / nal_hrd=none / filler=0 / ip_ratio=1.40 / aq=1:0.80
    Язык : English
    Default : Да
    Forced : Нет
    Цветовой диапазон : Limited
    Основные цвета : BT.709
    Характеристики трансфера : BT.709
    Коэффициенты матрицы : BT.709

    Аудио #1
    Идентификатор : 2
    Формат : AC-3
    Формат/Информация : Audio Coding 3
    Идентификатор кодека : A_AC3
    Продолжительность : 1 ч. 25 м.
    Вид битрейта : Постоянный
    Битрейт : 256 Кбит/сек
    Каналы : 2 канала
    Расположение каналов : Front: L R
    Частота : 48,0 КГц
    Частота кадров : 31,250 кадров/сек (1536 SPF)
    Битовая глубина : 16 бит
    Метод сжатия : С потерями
    Размер потока : 157 Мбайт (3%)
    Заголовок : DUB, Советский дубляж
    Язык : Russian
    Default : Да
    Forced : Нет

    Аудио #2
    Идентификатор : 3
    Формат : AC-3
    Формат/Информация : Audio Coding 3
    Идентификатор кодека : A_AC3
    Продолжительность : 1 ч. 25 м.
    Вид битрейта : Постоянный
    Битрейт : 224 Кбит/сек
    Каналы : 2 канала
    Расположение каналов : Front: L R
    Частота : 48,0 КГц
    Частота кадров : 31,250 кадров/сек (1536 SPF)
    Битовая глубина : 16 бит
    Метод сжатия : С потерями
    Размер потока : 138 Мбайт (2%)
    Заголовок : MVO, "Видеобаза"/"Деваль"
    Язык : Russian
    Default : Нет
    Forced : Нет

    Аудио #3
    Идентификатор : 4
    Формат : AC-3
    Формат/Информация : Audio Coding 3
    Идентификатор кодека : A_AC3
    Продолжительность : 1 ч. 25 м.
    Вид битрейта : Постоянный
    Битрейт : 224 Кбит/сек
    Каналы : 2 канала
    Расположение каналов : Front: L R
    Частота : 48,0 КГц
    Частота кадров : 31,250 кадров/сек (1536 SPF)
    Битовая глубина : 16 бит
    Метод сжатия : С потерями
    Размер потока : 138 Мбайт (2%)
    Заголовок : DVO, ВГТРК "Культура"
    Язык : Russian
    Default : Нет
    Forced : Нет

    Аудио #4
    Идентификатор : 5
    Формат : E-AC-3
    Формат/Информация : Enhanced Audio Coding 3
    Идентификатор кодека : A_EAC3
    Продолжительность : 1 ч. 25 м.
    Вид битрейта : Постоянный
    Битрейт : 224 Кбит/сек
    Каналы : 2 канала
    Расположение каналов : Front: L R
    Частота : 48,0 КГц
    Частота кадров : 187,500 кадров/сек (256 SPF)
    Метод сжатия : С потерями
    Размер потока : 138 Мбайт (2%)
    Заголовок : Original
    Язык : English
    Default : Нет
    Forced : Нет

    Текст #1
    Идентификатор : 6
    Формат : UTF-8
    Идентификатор кодека : S_TEXT/UTF8
    Идентификатор кодека/Информация : UTF-8 Plain Text
    Заголовок : На песни
    Язык : Russian
    Default : Да
    Forced : Нет

    Текст #2
    Идентификатор : 7
    Формат : UTF-8
    Идентификатор кодека : S_TEXT/UTF8
    Идентификатор кодека/Информация : UTF-8 Plain Text
    Язык : Russian
    Default : Нет
    Forced : Нет

    Текст #3
    Идентификатор : 8
    Формат : UTF-8
    Идентификатор кодека : S_TEXT/UTF8
    Идентификатор кодека/Информация : UTF-8 Plain Text
    Язык : English
    Default : Нет
    Forced : Нет

    Текст #4
    Идентификатор : 9
    Формат : UTF-8
    Идентификатор кодека : S_TEXT/UTF8
    Идентификатор кодека/Информация : UTF-8 Plain Text
    Заголовок : SDH
    Язык : English
    Default : Нет
    Forced : Нет

    Меню
    00:00:00.000 : en:Chapter 01
    00:01:08.686 : en:Chapter 02
    00:06:18.287 : en:Chapter 03
    00:11:49.201 : en:Chapter 04
    00:20:40.732 : en:Chapter 05
    00:26:54.439 : en:Chapter 06
    00:30:05.379 : en:Chapter 07
    00:34:14.836 : en:Chapter 08
    00:39:30.860 : en:Chapter 09
    00:48:09.169 : en:Chapter 10
    00:56:29.794 : en:Chapter 11
    00:58:31.540 : en:Chapter 12
    01:00:34.788 : en:Chapter 13
    01:04:46.706 : en:Chapter 14
    01:10:40.935 : en:Chapter 15
    01:18:14.388 : en:Chapter 16
  • pb.wtf



    Скачать Серенада солнечной долины через торрент https://i3.imageban.ru/out/2019/07/13/a50ca46dc630fe29e9bec956abdb0a95.png Скачать фильм Серенада солнечной долины через торрент бесплантно в хорошем качестве Описание: Веселая музыкальная комедия, в которой героиня Сони Хени в составе оркестра Глена Миллера отправляется в Солнечную долину. ... 5 10 1
    Торрент: Зарегистрирован [2019-07-13 17:17] · скачан: 2 раз
    Статус: √ проверено
    Размер: 5.48 GB
    Как cкачать? Как скачать Серенада солнечной долины через торрент | qTorrent

    28-11-2019 20:33  

    Отключить всю рекламу на сайте

      Дорогой пользователь! Огромная просьба, поблагодарите релизера, оцените раздачу и оставьте свои комментарий, если Вы скачали Серенада солнечной долины через торрент бесплатно! Внесите свою лепту в развитие PiratBit!
      Комментировать посты могут только пользователи прошедшие не сложную регистрацию
      Показать сообщения:    

      Серенада солнечной долины через торрент
      Скачать бесплатно Серенада солнечной долины
      Серенада солнечной долины скачать торрент
      Серенада солнечной долины смотреть онлайн
      Cкачать фильм Серенада солнечной долины бесплатно
      Серенада солнечной долины скачать торрент в хорошем качестве
      Серенада солнечной долины смотреть онлайн бесплатно в хорошем качестве


      Вы не можете начинать темы
      Вы не можете отвечать на сообщения
      Вы не можете редактировать свои сообщения
      Вы не можете удалять свои сообщения
      Вы не можете голосовать в опросах
      Вы не можете прикреплять файлы к сообщениям
      Вы можете скачивать файлы