Ссылка на приватное зеркало нашего сайта всего за 1$. Внимание количество ограничено!!!

2 сезон

iTunes

1 сезон

1

2 сезон

2 сезон

iTunes

1 сезон

RePack

30

Новинка

ВАЖНО

ИГРА 18+

pack

RePack

MK11
pack

Забери бонус

RePack

jed

!!Акция!!

Alien_Rage

RePack

fifa19

RePack

Assassins Creed: Odyssey

RePack

NEED FOR SPEED™ PAYBACK

4 сезон

9 сезон

Бесстыжие 9 сезон

Все сериалы

все сериалы на PB.wtf

RePack

FAR CRY 5
  

Снегопад / Snowfall / Сезон 3 / Серии 1-10 из 10 (Адиль Эль Арби, Билал Фалла, Джон Синглтон) [2019, драма, WEBRip] [MVO] (Jaskier) pb.wtf

Снегопад через торрент pb.wtf

Размер: 5.68 GB | Добавлен: 1 год 2 мес. назад | Торрент скачан:7 раз
Скачать  

13-07-2019 19:29 Снегопад Скачать торрент  

Снегопад | Snowfall Год выпуска: 2019
Страна: США
Жанр: Драма
Продолжительность: ~ 00:55:00
Перевод: Профессиональный (многоголосый закадровый) | Jaskier

Режиссёр: Адиль Эль Арби, Билал Фалла, Джон Синглтон

В ролях: Серхио Перис-Менчета, Эймин Джозеф, Айзиа Джон, Клаудия Абрего, Рой Авигдори, Лиана Легаспи, Адам Карст, Бернардо Бадилло, Ник Бишоп, Маркис Мур и др.

Описание: Сериал о начале кокаиновой эпидемии в Лос-Анджелесе начала 1980-х, когда на улицах Америки появился дешёвый крэк из Доминиканы, и страну захлестнул неконтролируемый рост преступности. События увидены глазами трёх главных героев: уличного торговца Джерома, гангстера Густаво и Леона, парня из благопристойного семейства.

rating


Качество: WEBRip
Формат: AVI
Видео: XviD, ~ 1400 Кбит/с, 720x400
Аудио: AC3, 48,0 КГц, 2 ch, 384 kbps - Rus
General
Complete name : E:\Snowfall. Season 3 (WEBRip l 400p l Jaskier)\Snowfall.S03E01.WEBRip.Rus.Jaskier.avi
Format : AVI
Format/Info : Audio Video Interleave
File size : 649 MiB
Duration : 50 min 35 s
Overall bit rate : 1 793 kb/s
Writing application : VirtualDubMod 1.5.10.3 | www.virtualdub-fr.org || (build 2550/release)
Writing library : VirtualDubMod build 2550/release

Video
ID : 0
Format : MPEG-4 Visual
Format profile : Advanced Simple@L5
Format settings : BVOP1 / Custom Matrix
Format settings, BVOP : 1
Format settings, QPel : No
Format settings, GMC : No warppoints
Format settings, Matrix : Custom
Codec ID : XVID
Codec ID/Hint : XviD
Duration : 50 min 35 s
Bit rate : 1 329 kb/s
Width : 720 pixels
Height : 400 pixels
Display aspect ratio : 16:9
Frame rate : 23.976 (24000/1001) FPS
Color space : YUV
Chroma subsampling : 4:2:0
Bit depth : 8 bits
Scan type : Progressive
Compression mode : Lossy
Bits/(Pixel*Frame) : 0.193
Stream size : 481 MiB (74%)
Writing library : XviD 73

Audio
ID : 1
Format : AC-3
Format/Info : Audio Coding 3
Format settings, Endianness : Big
Codec ID : 2000
Duration : 50 min 35 s
Bit rate mode : Constant
Bit rate : 384 kb/s
Channel(s) : 2 channels
Channel positions : Front: L R
Sampling rate : 48.0 kHz
Frame rate : 31.250 FPS (1536 SPF)
Bit depth : 16 bits
Compression mode : Lossy
Stream size : 139 MiB (21%)
Alignment : Split accross interleaves
Service kind : Complete Main
скриншот  скриншот  скриншот  
Когда раздача ведётся путём добавления новых серий, при каждом добавлении создётся новый торрент. Чтобы начать докачку новой серии, пользователям необходимо сделать следующее:
(1) остановить скачивание,
(2) удалить старый торрент у себя из клиента (старые серии удалять не надо),
(3) скачать новый торрент и запустить его у себя в клиенте вместо старого, при этом указать клиенту путь в старую папку, куда и должно происходить скачивание новых серий.
Ваш клиент при этом должен произвести хеширование (проверку) старой папки (если не производит сам - помогите ему сделать это), и будет докачивать только те серии, которых у вас ещё нет. Старые серии при этом не удаляются, а продолжают раздаваться!
Eсли вы уже удалили старые серии, то предотвратить повторную закачку старых серий можно, отжав галочку в соответсвующих местах при запуске нового торрента. По возможности, желательно не удалять старые серии как можно дольше, чтобы релизёр не столько продолжал раздавать старые серии, а смог сконцентрироваться на новых.
pb.wtf



Скачать Снегопад через торрент http://i95.fastpic.ru/big/2017/0706/3f/a7ad70d288096689f302cf76bf91423f.jpg Скачать фильм Снегопад через торрент бесплантно в хорошем качестве Описание: Сериал о начале кокаиновой эпидемии в Лос-Анджелесе начала 1980-х, когда на улицах Америки появился дешёвый крэк из Доминиканы, и ... 10 10 1
Торрент: Зарегистрирован [2019-09-17 19:26] · скачан: 7 раз
Статус: T временная
Размер: 5.68 GB
Как cкачать? Как скачать Снегопад через торрент | qTorrent

% Раздел Тема Автор DL S | L
Зарубежные сериалы [ 115.41 GB ] Снегопад / Snowfall / Сезон: 1-3 / Серии: 1-30 из 30 [2017-2019 WEB-DL 1080p] MVO [NewStudio] + DVO [Кубик в Кубе] bober100 Скачать
1 | 0
Зарубежные сериалы [ 17.44 GB ] Снегопад / Snowfall / Сезон: 3 / Серия: 1-10 из 10 [2019 WEB-DL 720p] [MVO] killermax2013 Скачать
1 | 0
Зарубежные сериалы [ 23.93 GB ] Снегопад / Snowfall / Сезон: 3 / Серии: 1-10 из 10 [2019 WEBRip 1080p] MVO [IdeaFilm] bober100 Скачать
1 | 0
T Зарубежные сериалы [ 16.5 GB ] Снегопад / Snowfall / Сезон: 3 / Серии: 1-10 из 10 [2019 WEBRip 720p] MVO [IdeaFilm] bober100 Скачать
1 | 0
Зарубежные сериалы [ 7.46 GB ] Снегопад / Snowfall / Сезон: 3 / Серии: 1-10 из 10 [2019 WEB-DLRip] MVO [TVShows] bober100 Скачать
1 | 0
Зарубежные сериалы [ 35.61 GB ] Снегопад / Snowfall / Сезон: 3 / Серия: 1-10 из 10 [2019 WEB-DL 1080p] [MVO] killermax2013 Скачать
1 | 0
Зарубежные сериалы [ 8.75 GB ] Снегопад / Snowfall / Сезон: 3 / Серии: 1-10 из 10 [2019 WEB-DLRip] [MVO] killermax2013 Скачать
1 | 0

28-11-2019 20:33  

Отключить всю рекламу на сайте

    Дорогой пользователь! Огромная просьба, поблагодарите релизера, оцените раздачу и оставьте свои комментарий, если Вы скачали Снегопад через торрент бесплатно! Внесите свою лепту в развитие PiratBit!
    Комментировать посты могут только пользователи прошедшие не сложную регистрацию
    Показать сообщения:    

    Снегопад через торрент
    Скачать бесплатно Снегопад
    Снегопад скачать торрент
    Снегопад смотреть онлайн
    Cкачать фильм Снегопад бесплатно
    Снегопад скачать торрент в хорошем качестве
    Снегопад смотреть онлайн бесплатно в хорошем качестве


    Вы не можете начинать темы
    Вы не можете отвечать на сообщения
    Вы не можете редактировать свои сообщения
    Вы не можете удалять свои сообщения
    Вы не можете голосовать в опросах
    Вы не можете прикреплять файлы к сообщениям
    Вы можете скачивать файлы