новый адрес пиратбит piratbit
MEGA NEWS Получи личный уникальный адрес сайта и защити себя от блокировок. Внимание количество ограничено!!!

iTunes

1+1

iTunes

мы

iTunes

1

iTunes

Чернобыль

iTunes

Ральф против интернета

Лицензия

ПШазам

Лицензия

Игра престолов

Лицензия

30
pack

ВАЖНО

!!Акция!!

Alien_RageХит недели

RePack

Resident Evil 21

ИГРА 18+

pack

RePack

Metro:Exodus

!!Акция!!

Alien_Rage

RePack

fifa19

RePack

Assassins Creed: Odyssey

RePack

NEED FOR SPEED™ PAYBACK

3 сезон

9 сезон

Бесстыжие 9 сезон

Все сериалы

все сериалы на PB.wtf

RePack

FAR CRY 5
Ребята, катастрофически не хватает 1900р. для оплаты серверов за АВГУСТ (всвязи с блокировками трафик упал в 3 раза), 1-2р., выручайте.
  

Черви / Squirm (Джефф Либерман) [1976 г., Ужасы, триллер, BDRip 720p от KORSAR][DVO + VO] pb.wtf

Черви через торрент pb.wtf

Размер: 4.76 GB | Добавлен: 3 мес. 9 д. назад | Торрент скачан:7 раз
Скачать  

13-07-2019 19:50 Черви Скачать торрент  

Название: Черви / Корча
Оригинальное название: Squirm
Год выпуска: 1976
Жанр: Ужасы

Режиссер: Джефф Либерман
В ролях: Дон Скардино, Патриция Пирси, Р.А. Дау, Джин Салливан, Питер Маклин, Фран Хиггинс, Уильям Ньюман, Барбара Куинн, Энджел Сэнд

О фильме: После сильного шторма в одну из ненастных южных ночей небольшой провинциальный городок Флай-Крик лишился электричества из-за повреждения высоковольтной линии. Кабель с линии, продолжал подавать энергию, только не в дома мирных сельских жителей, а прямиком в почву, кишащую дождевыми червями. От столь серьезного «электрошока» червяки из безобидных существ превратились в опасных монстров, жаждущих человеческой крови, которая вскоре, и пролилась…

rating

Продолжительность: 01:32:56
Выпущено: США, Squirm Company
Перевод: Профессиональный двухголосый, любительский

Качество: BDRip 720p
Формат: MKV
Видео: MPEG-4 AVC, 6756 Кбит/сек, 1280x692, 23,976 кадра/сек
Аудио #1: AC3, 2 ch, 192 Кбит/сек | Русский, профессиональный (двухголосый закадровый) НТВ+
Аудио #2: AC3, 2 ch, 192 Кбит/сек | Русский, любительский (одноголосый закадровый) Jonathan
Аудио #3: AC3, 2 ch, 192 Кбит/сек | Английский, оригинал
Субтитры: Английские
Навигация по главам: Есть

Релиз от:
x264 [info]: frame I:864 Avg QP:16.74 size:109357
x264 [info]: frame P:25483 Avg QP:18.28 size: 59024
x264 [info]: frame B:107333 Avg QP:20.23 size: 28955
-----------------------------------------------------
Общее
Уникальный идентификатор : 177817477455330763903192912921694328422 (0x85C66683AC26B0A78ACEA6BED4C85666)
Полное имя : Черви.1976.BDRip.720p.KORSAR.mkv
Формат : Matroska
Версия формата : Version 2
Размер файла : 4,76 Гбайт
Продолжительность : 1 ч. 32 м.
Общий поток : 7331 Кбит/сек
Дата кодирования : UTC 2018-11-28 01:05:23
Программа кодирования : mkvmerge v5.8.0 ('No Sleep / Pillow') built on Sep 2 2012 15:37:04
Библиотека кодирования : libebml v1.2.3 + libmatroska v1.3.0

Видео
Идентификатор : 1
Формат : AVC
Формат/Информация : Advanced Video Codec
Профиль формата : High@L4.1
Настройки формата : CABAC / 9 Ref Frames
Параметр CABAC формата : Да
Параметр RefFrames формата : 9 кадров
Идентификатор кодека : V_MPEG4/ISO/AVC
Продолжительность : 1 ч. 32 м.
Битрейт : 6756 Кбит/сек
Ширина : 1280 пикселей
Высота : 692 пикселя
Соотношение сторон : 1,85:1
Режим частоты кадров : Постоянный
Частота кадров : 23,976 (24000/1001) кадра/сек
Цветовое пространство : YUV
Субдискретизация насыщенности : 4:2:0
Битовая глубина : 8 бит
Тип развёртки : Прогрессивная
Бит/(Пиксели*Кадры) : 0.318
Размер потока : 4,29 Гбайт (90%)
Заголовок : RIP | MZMA
Библиотека кодирования : x264 core 152 r2851kMod ba24899
Настройки программы : cabac=1 / ref=9 / deblock=1:-3:-2 / analyse=0x3:0x113 / me=umh / subme=11 / psy=1 / fade_compensate=0.00 / psy_rd=1.00:0.00 / mixed_ref=1 / me_range=48 / chroma_me=1 / trellis=2 / 8x8dct=1 / cqm=0 / deadzone=21,11 / fast_pskip=0 / chroma_qp_offset=-2 / threads=6 / lookahead_threads=1 / sliced_threads=0 / nr=0 / decimate=0 / interlaced=0 / bluray_compat=0 / constrained_intra=0 / bframes=16 / b_pyramid=2 / b_adapt=2 / b_bias=0 / direct=3 / weightb=1 / open_gop=0 / weightp=2 / keyint=240 / keyint_min=23 / scenecut=40 / intra_refresh=0 / rc_lookahead=40 / rc=2pass / mbtree=0 / bitrate=6756 / ratetol=1.0 / qcomp=0.60 / qpmin=0 / qpmax=69 / qpstep=4 / cplxblur=20.0 / qblur=0.5 / vbv_maxrate=50000 / vbv_bufsize=62500 / nal_hrd=none / filler=0 / ip_ratio=1.25 / pb_ratio=1.30 / aq=3:0.70
Язык : English
По умолчанию : Да
Принудительно : Нет
Цветовой диапазон : Limited
Основные цвета : BT.709
Характеристики трансфера : BT.709
Коэффициенты матрицы : BT.709

Аудио #1
Идентификатор : 2
Формат : AC-3
Формат/Информация : Audio Coding 3
Идентификатор кодека : A_AC3
Продолжительность : 1 ч. 32 м.
Вид битрейта : Постоянный
Битрейт : 192 Кбит/сек
Каналы : 2 канала
Расположение каналов : Front: L R
Частота : 48,0 КГц
Частота кадров : 31,250 кадров/сек (1536 SPF)
Битовая глубина : 16 бит
Метод сжатия : С потерями
Размер потока : 128 Мбайт (3%)
Заголовок : DVO | НТВ+
Язык : Russian
По умолчанию : Да
Принудительно : Нет

Аудио #2
Идентификатор : 3
Формат : AC-3
Формат/Информация : Audio Coding 3
Идентификатор кодека : A_AC3
Продолжительность : 1 ч. 32 м.
Вид битрейта : Постоянный
Битрейт : 192 Кбит/сек
Каналы : 2 канала
Расположение каналов : Front: L R
Частота : 48,0 КГц
Частота кадров : 31,250 кадров/сек (1536 SPF)
Битовая глубина : 16 бит
Метод сжатия : С потерями
Размер потока : 128 Мбайт (3%)
Заголовок : VO | Jonathan
Язык : Russian
По умолчанию : Нет
Принудительно : Нет

Аудио #3
Идентификатор : 4
Формат : AC-3
Формат/Информация : Audio Coding 3
Идентификатор кодека : A_AC3
Продолжительность : 1 ч. 32 м.
Вид битрейта : Постоянный
Битрейт : 192 Кбит/сек
Каналы : 2 канала
Расположение каналов : Front: L R
Частота : 48,0 КГц
Частота кадров : 31,250 кадров/сек (1536 SPF)
Битовая глубина : 16 бит
Метод сжатия : С потерями
Размер потока : 128 Мбайт (3%)
Заголовок : Original
Язык : English
По умолчанию : Нет
Принудительно : Нет

Текст #1
Идентификатор : 5
Формат : UTF-8
Идентификатор кодека : S_TEXT/UTF8
Идентификатор кодека/Информация : UTF-8 Plain Text
Язык : English
По умолчанию : Нет
Принудительно : Нет

Текст #2
Идентификатор : 6
Формат : UTF-8
Идентификатор кодека : S_TEXT/UTF8
Идентификатор кодека/Информация : UTF-8 Plain Text
Заголовок : SDH
Язык : English
По умолчанию : Нет
Принудительно : Нет

Меню
00:00:00.000 : en:01. Main Title/Storm
00:03:21.488 : en:02. Geri
00:08:46.954 : en:03. Mick Arrives
00:20:17.154 : en:04. 100,000 Worms
00:23:57.320 : en:05. Disappearing Skeleton
00:29:24.753 : en:06. Fly Creek Folks
00:33:19.853 : en:07. Creepy Curiosity
00:36:41.953 : en:08. Gone Fishin'
00:46:35.919 : en:09. Investigating
00:53:48.352 : en:10. Worm Farmer
00:56:40.452 : en:11. Self-Centered Sheriff
01:01:28.485 : en:12. Dinner Interrupted
01:07:29.068 : en:13. Worms Attack!
01:17:19.558 : en:14. Wrestling Roger
01:24:31.851 : en:15. Slime-Dodging
01:27:43.284 : en:16. The Light
01:30:45.800 : en:17. End Credits
pb.wtf



Скачать Черви через торрент http://d.radikal.ru/d31/1907/7c/be9a1d5724d1.png Скачать фильм Черви через торрент бесплантно в хорошем качестве О фильме: После сильного шторма в одну из ненастных южных ночей небольшой провинциальный городок Флай-Крик лишился электричества из-за ... 10 10 1
Info! Золотая раздача, скачанное не засчитывается.
Торрент: Зарегистрирован [2019-07-13 19:50] · скачан: 7 раз
Статус: √ проверено
Размер: 4.76 GB
Как cкачать? Как скачать Черви через торрент | qTorrent


>> Регистрируемся здесь <<






Отзывы и комментарии о схеме читаем и пишем здесь: ---> Отзывы и комментарии о схеме

Новые благодарочки в телеграм довольных пользователей:
скриншот   скриншот   скриншот   скриншот   скриншот
    Дорогой пользователь! Огромная просьба, поблагодарите релизера, оцените раздачу и оставьте свои комментарий, если Вы скачали Черви через торрент бесплатно! Внесите свою лепту в развитие PiratBit!
    Комментировать посты могут только пользователи прошедшие не сложную регистрацию
    Показать сообщения:    

    Черви через торрент
    Скачать бесплатно Черви
    Черви скачать торрент
    Черви смотреть онлайн
    Cкачать фильм Черви бесплатно
    Черви скачать торрент в хорошем качестве
    Черви смотреть онлайн бесплатно в хорошем качестве


    Вы не можете начинать темы
    Вы не можете отвечать на сообщения
    Вы не можете редактировать свои сообщения
    Вы не можете удалять свои сообщения
    Вы не можете голосовать в опросах
    Вы не можете прикреплять файлы к сообщениям
    Вы можете скачивать файлы