Мега распродажа FORZA HORIZON 4 ULTIMATE+ВСЕ DLC+ОНЛАЙН всего за 499р. 349 руб. (супер цена). Внимание количество ограничено!!!

iTunes

1+1

iTunes

мы

iTunes

1

1 сезон

Чернобыль

1 сезон

Ральф против интернета

Лицензия

ПШазам

8 сезон

Игра престолов

Лицензия

30
pack

ВАЖНО

!!Акция!!

Alien_RageХит недели

RePack

Resident Evil 21

ИГРА 18+

pack

RePack

Metro:Exodus

!!Акция!!

Alien_Rage

RePack

fifa19

RePack

Assassins Creed: Odyssey

RePack

NEED FOR SPEED™ PAYBACK

3 сезон

9 сезон

Бесстыжие 9 сезон

Все сериалы

все сериалы на PB.wtf

RePack

FAR CRY 5
Ребята, катастрофически не хватает 2730р. для оплаты серверов за ИЮНЬ (всвязи с блокировками трафик упал в 3 раза), 1-2р., выручайте.
  

Одиссей / The Odyssey (Андрей Кончаловский) [1997 г., фэнтези, драма, приключения, DVDRip-AVC] [Director's Cut] MVO + AVO - KORSAR pb.wtf

Одиссей через торрент pb.wtf

Раздают: 1 [ 0 KB/s ]
Размер: 3.83 GB | Добавлен: 7 д. назад | Торрент скачан:11 раз
Скачать  

13-07-2019 22:12 Одиссей Скачать торрент  

Одиссей / The Odyssey
Год выпуска: 1997
Страна: Великобритания , Италия , Германия , США
Жанр: Фэнтези, драма, приключения
Продолжительность: 02:59:59
Перевод: Профессиональный многоголосый, авторский одноголосый
Субтитры: Русские
Режиссёр: Андрей Кончаловский
В ролях: Арманд Ассанте, Грета Скакки, Изабелла Росселлини, Бернадетт Питерс, Эрик Робертс, Ирен Папас, Ерун Краббе, Джеральдин Чаплин, Кристофер Ли, Ванесса Уильямс
Описание: Год за годом греки бились под стенами Трои. Тысячи воинов полегли убитыми. Никто не знал, на чьей стороне боги. Греки роптали. И тогда хитроумный царь Одиссей придумал, как проникнуть в Трою. Через десять лет осады они победили. А Одиссей возгордился и бросил вызов богам. Оскорбленный Посейдон, бог морей, обрек его на вечные блуждания по волнам, чтобы никогда не достичь берегов родной Итаки, не увидеть сына Телемаха и жену Пенелопу. Множество опасных приключений выпало на долю Одиссея - на его пути встали одноглазый циклоп Полифем, жуткие чудовища Сцилла и Харибда, сладкоголосые сирены и сластолюбивая нимфа Калипсо.

rating

Качество: DVDRip-AVC
Формат: MKV
Видео: MPEG-4 AVC, 716x480@716x540, 23.976 fps, 2406 Кбит/с
Аудио 1: Russian: AC3, 2 ch, 192 Кбит/с - MVO, Студия "Ракурс"
Аудио 2: Russian: AC3, 2 ch, 192 Кбит/с - AVO, С. Визгунов
Аудио 3: English: AC3, 2 ch, 192 Кбит/с - Оригинал

Релиз от:


Общее
Уникальный идентификатор : 200780460399820397891808710785856596899 (0x970CE8FBDDFA5A4384C8ED46F02E6BA3)
Полное имя : Одиссей.1997.DVDRip-AVC.KORSAR.mkv
Формат : Matroska
Версия формата : Version 2
Размер файла : 3,83 Гбайт
Продолжительность : 2 ч. 59 м.
Общий поток : 3043 Кбит/сек
Название фильма : Одиссей.1997.DVDRip-AVC.KORSAR
Дата кодирования : UTC 2018-10-29 16:53:10
Программа кодирования : mkvmerge v5.8.0 ('No Sleep / Pillow') built on Sep 2 2012 15:37:04
Библиотека кодирования : libebml v1.2.3 + libmatroska v1.3.0

Видео
Идентификатор : 1
Формат : AVC
Формат/Информация : Advanced Video Codec
Профиль формата : High@L4.1
Параметр CABAC формата : Да
Параметр RefFrames формата : 13 кадров
Идентификатор кодека : V_MPEG4/ISO/AVC
Продолжительность : 2 ч. 59 м.
Битрейт : 2406 Кбит/сек
Ширина : 716 пикселей
Высота : 480 пикселей
Соотношение сторон : 4:3
Режим частоты кадров : Постоянный
Частота кадров : 23,976 (24000/1001) кадра/сек
Цветовое пространство : YUV
Субдискретизация насыщенности : 4:2:0
Битовая глубина : 8 бит
Тип развёртки : Прогрессивная
Бит/(Пиксели*Кадры) : 0.292
Размер потока : 3,03 Гбайт (79%)
Библиотека кодирования : x264 core 152 r2851kMod ba24899
Настройки программы : cabac=1 / ref=13 / deblock=1:-2:-1 / analyse=0x3:0x133 / me=umh / subme=10 / psy=1 / fade_compensate=0.00 / psy_rd=1.05:0.10 / mixed_ref=1 / me_range=32 / chroma_me=1 / trellis=2 / 8x8dct=1 / cqm=0 / deadzone=21,11 / fast_pskip=1 / chroma_qp_offset=-3 / threads=12 / lookahead_threads=2 / sliced_threads=0 / nr=0 / decimate=1 / interlaced=0 / bluray_compat=0 / constrained_intra=0 / bframes=9 / b_pyramid=2 / b_adapt=2 / b_bias=0 / direct=1 / weightb=1 / open_gop=0 / weightp=2 / keyint=240 / keyint_min=23 / scenecut=40 / intra_refresh=0 / rc=crf / mbtree=0 / crf=17.6000 / qcomp=0.63 / qpmin=0 / qpmax=39 / qpstep=4 / ip_ratio=1.40 / pb_ratio=1.30 / aq=1:1.00
Язык : English
Default : Да
Forced : Нет
Цветовой диапазон : Limited
Основные цвета : BT.601 NTSC
Характеристики трансфера : BT.601
Коэффициенты матрицы : BT.601

Аудио #1
Идентификатор : 2
Формат : AC-3
Формат/Информация : Audio Coding 3
Параметр Endianness формата : Big
Идентификатор кодека : A_AC3
Продолжительность : 2 ч. 59 м.
Вид битрейта : Постоянный
Битрейт : 192 Кбит/сек
Каналы : 2 канала
Расположение каналов : Front: L R
Частота : 48,0 КГц
Частота кадров : 31,250 кадров/сек (1536 SPF)
Битовая глубина : 16 бит
Метод сжатия : С потерями
Размер потока : 247 Мбайт (6%)
Заголовок : MVO, Студия "Ракурс"
Язык : Russian
Default : Да
Forced : Нет

Аудио #2
Идентификатор : 3
Формат : AC-3
Формат/Информация : Audio Coding 3
Параметр Endianness формата : Big
Идентификатор кодека : A_AC3
Продолжительность : 2 ч. 59 м.
Вид битрейта : Постоянный
Битрейт : 192 Кбит/сек
Каналы : 2 канала
Расположение каналов : Front: L R
Частота : 48,0 КГц
Частота кадров : 31,250 кадров/сек (1536 SPF)
Битовая глубина : 16 бит
Метод сжатия : С потерями
Размер потока : 247 Мбайт (6%)
Заголовок : AVO, C. Визгунов
Язык : Russian
Default : Нет
Forced : Нет

Аудио #3
Идентификатор : 4
Формат : AC-3
Формат/Информация : Audio Coding 3
Параметр Endianness формата : Big
Идентификатор кодека : A_AC3
Продолжительность : 2 ч. 59 м.
Вид битрейта : Постоянный
Битрейт : 192 Кбит/сек
Каналы : 2 канала
Расположение каналов : Front: L R
Частота : 48,0 КГц
Частота кадров : 31,250 кадров/сек (1536 SPF)
Битовая глубина : 16 бит
Метод сжатия : С потерями
Размер потока : 247 Мбайт (6%)
Заголовок : Оригинал
Язык : English
Default : Нет
Forced : Нет

Текст
Идентификатор : 5
Формат : UTF-8
Идентификатор кодека : S_TEXT/UTF8
Идентификатор кодека/Информация : UTF-8 Plain Text
Язык : Russian
Default : Нет
Forced : Нет

Меню
00:00:00.000 : en:Chapter 1
00:06:10.500 : en:Chapter 2
00:10:30.301 : en:Chapter 3
00:13:33.468 : en:Chapter 4
00:26:47.269 : en:Chapter 5
00:33:09.936 : en:Chapter 6
00:43:10.470 : en:Chapter 7
00:54:54.404 : en:Chapter 8
01:00:55.404 : en:Chapter 9
01:05:39.604 : en:Chapter 10
01:10:40.138 : en:Chapter 11
01:14:51.739 : en:Chapter 12
01:20:47.106 : en:Chapter 13
01:23:31.506 : en:Chapter 14
01:34:35.040 : en:Chapter 15
01:39:25.507 : en:Chapter 16
01:45:43.540 : en:Chapter 17
01:47:33.774 : en:Chapter 18
01:52:40.675 : en:Chapter 19
01:57:40.409 : en:Chapter 20
02:03:00.176 : en:Chapter 21
02:07:00.044 : en:Chapter 22
02:12:47.311 : en:Chapter 23
02:20:57.179 : en:Chapter 24
02:25:53.212 : en:Chapter 25
02:34:27.813 : en:Chapter 26
02:40:58.013 : en:Chapter 27
02:44:50.180 : en:Chapter 28
02:55:17.814 : en:Chapter 29
02:58:38.081 : en:Chapter 30
02:59:42.181 : en:Chapter 31
02:59:48.948 : en:Chapter 32
02:59:49.448 : en:Chapter 33
pb.wtf



Скачать Одиссей через торрент https://i3.imageban.ru/out/2019/07/14/d01fc3a29f6815ea4bb179fe609ca076.png Скачать фильм Одиссей через торрент бесплантно в хорошем качестве Описание: Год за годом греки бились под стенами Трои. Тысячи воинов полегли убитыми. Никто не знал, на чьей стороне боги. Греки роптали. И ... 9 10 1
Info! Золотая раздача, скачанное не засчитывается.
Торрент: Зарегистрирован [2019-07-13 22:12] · скачан: 11 раз
Статус: √ проверено
Размер: 3.83 GB
Как cкачать? Как скачать Одиссей через торрент | qTorrent


>> Регистрируемся здесь <<






Отзывы и комментарии о схеме читаем и пишем здесь: ---> Отзывы и комментарии о схеме

Новые благодарочки в телеграм довольных пользователей:
скриншот   скриншот   скриншот   скриншот   скриншот
    Дорогой пользователь! Огромная просьба, поблагодарите релизера, оцените раздачу и оставьте свои комментарий, если Вы скачали Одиссей через торрент бесплатно! Внесите свою лепту в развитие PiratBit!
    Комментировать посты могут только пользователи прошедшие не сложную регистрацию
    Показать сообщения:    

    Одиссей через торрент
    Скачать бесплатно Одиссей
    Одиссей скачать торрент
    Одиссей смотреть онлайн
    Cкачать фильм Одиссей бесплатно
    Одиссей скачать торрент в хорошем качестве
    Одиссей смотреть онлайн бесплатно в хорошем качестве


    Вы не можете начинать темы
    Вы не можете отвечать на сообщения
    Вы не можете редактировать свои сообщения
    Вы не можете удалять свои сообщения
    Вы не можете голосовать в опросах
    Вы не можете прикреплять файлы к сообщениям
    Вы можете скачивать файлы