Мега распродажа FORZA HORIZON 4 ULTIMATE+ВСЕ DLC+ОНЛАЙН всего за 499р. 349 руб. (супер цена). Внимание количество ограничено!!!

iTunes

1+1

iTunes

мы

iTunes

1

1 сезон

Чернобыль

1 сезон

Ральф против интернета

Лицензия

ПШазам

8 сезон

Игра престолов

Лицензия

30
pack

ВАЖНО

!!Акция!!

Alien_RageХит недели

RePack

Resident Evil 21

ИГРА 18+

pack

RePack

Metro:Exodus

!!Акция!!

Alien_Rage

RePack

fifa19

RePack

Assassins Creed: Odyssey

RePack

NEED FOR SPEED™ PAYBACK

3 сезон

9 сезон

Бесстыжие 9 сезон

Все сериалы

все сериалы на PB.wtf

RePack

FAR CRY 5
Ребята, катастрофически не хватает 2730р. для оплаты серверов за ИЮНЬ (всвязи с блокировками трафик упал в 3 раза), 1-2р., выручайте.
  

Алита: Боевой ангел / Alita: Battle Angel (Роберт Родригес) [2019, фантастика, боевик, триллер, мелодрама, приключения, UHD BDRemux 2160p] DUB (rus, ukr) [Лицензия] 2xMVO [CВ Студия, HDRezka Studio] pb.wtf

Алита: Боевой ангел через торрент pb.wtf

Раздают: 7 [ 845 KB/s ] Качают: 1 [ 0 KB/s ]
Размер: 41.5 GB | Добавлен: 2 д. 19 ч. назад | Торрент скачан:47 раз
Скачать  

14-07-2019 05:56 Алита: Боевой ангел Скачать торрент  

Алита: Боевой ангел / Alita: Battle Angel
Год выпуска: 2019
Страна: Канада, Аргентина, США
Жанр: фантастика, боевик, триллер, мелодрама, приключения
Продолжительность: 02:01:57
Перевод:

#1: Дублированный | Лицензия
#2: Профессиональный (многоголосый закадровый) | CВ Студия
#3: Профессиональный (многоголосый закадровый) | HDRezka Studio

Субтитры: Русские (Forced, 2 x full), украинские (Full), английские

Режиссер: Роберт Родригес

rating

В ролях:

Роза Салазар (Alita), Кристоф Вальц (Dr. Dyson Ido), Дженнифер Коннелли (Chiren), Махершала Али (Vector), Эд Скрейн (Zapan), Джеки Эрл Хейли (Grewishka), Киан Джонсон (Hugo), Хорхе Лендеборг мл. (Tanji), Лана Кондор (Koyomi), Идара Виктор (Nurse Gerhad), Джефф Фэйи (McTeague), Эйса Гонсалес (Nyssiana)
Описание:

Действие фильма происходит через 300 лет после Великой войны в XXVI веке. Доктор Идо находит останки женщины-киборга. После починки киборг ничего не помнит, но обнаруживает, что в состоянии пользоваться боевыми приемами киборгов. Начинаются поиски утерянных воспоминаний.

Качество: UHD BDRemux 2160p
Формат: MKV

Видео: MPEG-4 AVC, 3840x2160 at 23.976 fps, MPEG-H HEVC HDR Video, 41400 kbps avg
Аудио#1: 48 kHz, AC3, 5.1, 768 Kbps | Дублированный | RUS |
Аудио#2: 48 kHz, AC3, 2.0, 192 Kbps | СВ Студия | RUS |
Аудио#3: 48 kHz, AC3, 2.0, 192 Kbps | HDRezka Studio | RUS |
Аудио#4: 48 kHz, AC3, 5.1, 448 Kbps | Дублированный | UKR |
Аудио#5: 48 kHz, TrueHD, 5.1, 5013 Kbps | Оригинал | ENG |
Аудио#6: 48 kHz, AC3, 5.1, 640 Kbps | Оригинал | ENG |
скриншот  скриншот  скриншот  скриншот  скриншот  

General
Unique ID : 44160546270696733442934063388576472418 (0x2139030819373EF0BCC8885854945D62)
Complete name : D:Video1111Alita.Battle.Angel.2019.Lic.BDREMUX.2160p.HDR.seleZen.mkv
Format : Matroska
Format version : Version 4
File size : 41.5 GiB
Duration : 2 h 1 min
Overall bit rate mode : Variable
Overall bit rate : 48.7 Mb/s
Movie name : Alita Battle Angel 2019 from селезень
Encoded date : UTC 2019-07-14 05:19:55
Writing application : mkvmerge v22.0.0 ('At The End Of The World') 64-bit
Writing library : libebml v1.3.5 + libmatroska v1.4.8

Video
ID : 1
Format : HEVC
Format/Info : High Efficiency Video Coding
Format profile : Main 10@L5.1@High
HDR format : SMPTE ST 2094 App 4, Version 1, HDR10+ Profile A compatible
Codec ID : V_MPEGH/ISO/HEVC
Duration : 2 h 1 min
Bit rate : 41.4 Mb/s
Width : 3 840 pixels
Height : 2 160 pixels
Display aspect ratio : 16:9
Frame rate mode : Constant
Frame rate : 23.976 (24000/1001) FPS
Color space : YUV
Chroma subsampling : 4:2:0 (Type 2)
Bit depth : 10 bits
Bits/(Pixel*Frame) : 0.208
Stream size : 35.2 GiB (85%)
Language : English
Default : Yes
Forced : No
Color range : Limited
Color primaries : BT.2020
Transfer characteristics : PQ
Matrix coefficients : BT.2020 non-constant
Mastering display color pri : Display P3
Mastering display luminance : min: 0.0001 cd/m2, max: 1000 cd/m2
Maximum Content Light Level : 233 cd/m2
Maximum Frame-Average Light : 63 cd/m2

Audio #1
ID : 2
Format : DTS
Format/Info : Digital Theater Systems
Codec ID : A_DTS
Duration : 2 h 1 min
Bit rate mode : Constant
Bit rate : 768 kb/s
Channel(s) : 6 channels
Channel layout : C L R Ls Rs LFE
Sampling rate : 48.0 kHz
Frame rate : 93.750 FPS (512 SPF)
Bit depth : 24 bits
Compression mode : Lossy
Stream size : 670 MiB (2%)
Title : Dub [License]
Language : Russian
Default : Yes
Forced : Yes

Audio #2
ID : 3
Format : AC-3
Format/Info : Audio Coding 3
Commercial name : Dolby Digital
Codec ID : A_AC3
Duration : 2 h 1 min
Bit rate mode : Constant
Bit rate : 192 kb/s
Channel(s) : 2 channels
Channel layout : L R
Sampling rate : 48.0 kHz
Frame rate : 31.250 FPS (1536 SPF)
Bit depth : 16 bits
Compression mode : Lossy
Stream size : 167 MiB (0%)
Title : MVO [СВ Студия]
Language : Russian
Service kind : Complete Main
Default : No
Forced : No

Audio #3
ID : 4
Format : AC-3
Format/Info : Audio Coding 3
Commercial name : Dolby Digital
Codec ID : A_AC3
Duration : 2 h 1 min
Bit rate mode : Constant
Bit rate : 192 kb/s
Channel(s) : 2 channels
Channel layout : L R
Sampling rate : 48.0 kHz
Frame rate : 31.250 FPS (1536 SPF)
Bit depth : 16 bits
Compression mode : Lossy
Stream size : 167 MiB (0%)
Title : MVO [HDRezka Studio]
Language : Russian
Service kind : Complete Main
Default : No
Forced : No

Audio #4
ID : 5
Format : AC-3
Format/Info : Audio Coding 3
Commercial name : Dolby Digital
Codec ID : A_AC3
Duration : 2 h 1 min
Bit rate mode : Constant
Bit rate : 448 kb/s
Channel(s) : 6 channels
Channel layout : L R C LFE Ls Rs
Sampling rate : 48.0 kHz
Frame rate : 31.250 FPS (1536 SPF)
Bit depth : 16 bits
Compression mode : Lossy
Stream size : 391 MiB (1%)
Title : Dub [License]
Language : Ukrainian
Service kind : Complete Main
Default : No
Forced : No

Audio #5
ID : 6
Format : MLP FBA 16-ch
Format/Info : Meridian Lossless Packing FBA with 16-channel presentation
Commercial name : Dolby TrueHD with Dolby Atmos
Codec ID : A_TRUEHD
Duration : 2 h 1 min
Bit rate mode : Variable
Bit rate : 5 013 kb/s
Channel(s) : 8 channels
Channel layout : L R C LFE Ls Rs Lb Rb
Sampling rate : 48.0 kHz
Frame rate : 1 200.000 FPS (40 SPF)
Compression mode : Lossless
Stream size : 4.30 GiB (10%)
Title : Original
Language : English
Default : No
Forced : No
Number of dynamic objects : 13
Bed channel count : 1 channel
Bed channel configuration : LFE

Audio #6
ID : 7
Format : AC-3
Format/Info : Audio Coding 3
Commercial name : Dolby Digital
Codec ID : A_AC3
Duration : 2 h 1 min
Bit rate mode : Constant
Bit rate : 640 kb/s
Channel(s) : 6 channels
Channel layout : L R C LFE Ls Rs
Sampling rate : 48.0 kHz
Frame rate : 31.250 FPS (1536 SPF)
Bit depth : 16 bits
Compression mode : Lossy
Stream size : 558 MiB (1%)
Language : English
Service kind : Complete Main
Default : No
Forced : No

Text #1
ID : 8
Format : UTF-8
Codec ID : S_TEXT/UTF8
Codec ID/Info : UTF-8 Plain Text
Duration : 2 s 544 ms
Bit rate : 251 b/s
Count of elements : 1
Stream size : 80.0 Bytes (0%)
Title : Forced
Language : Russian
Default : Yes
Forced : Yes

Text #2
ID : 9
Format : UTF-8
Codec ID : S_TEXT/UTF8
Codec ID/Info : UTF-8 Plain Text
Duration : 2 h 1 min
Bit rate : 50 b/s
Count of elements : 1052
Stream size : 44.9 KiB (0%)
Title : Full [License]
Language : Russian
Default : No
Forced : No

Text #3
ID : 10
Format : UTF-8
Codec ID : S_TEXT/UTF8
Codec ID/Info : UTF-8 Plain Text
Duration : 1 h 56 min
Bit rate : 64 b/s
Count of elements : 1318
Stream size : 55.4 KiB (0%)
Title : Full [FOCS]
Language : Russian
Default : No
Forced : No

Text #4
ID : 11
Format : UTF-8
Codec ID : S_TEXT/UTF8
Codec ID/Info : UTF-8 Plain Text
Duration : 2 h 1 min
Bit rate : 48 b/s
Count of elements : 1254
Stream size : 43.4 KiB (0%)
Title : Full [License]
Language : Ukrainian
Default : No
Forced : No

Text #5
ID : 12
Format : UTF-8
Codec ID : S_TEXT/UTF8
Codec ID/Info : UTF-8 Plain Text
Duration : 1 h 55 min
Bit rate : 41 b/s
Count of elements : 1347
Stream size : 34.9 KiB (0%)
Title : Full
Language : English
Default : No
Forced : No

Text #6
ID : 13
Format : UTF-8
Codec ID : S_TEXT/UTF8
Codec ID/Info : UTF-8 Plain Text
Duration : 1 h 56 min
Bit rate : 46 b/s
Count of elements : 1590
Stream size : 39.5 KiB (0%)
Title : SDH
Language : English
Default : No
Forced : No

Menu
00:00:00.000 : en:00:00:00.000
00:03:28.625 : en:00:03:28.625
00:07:51.680 : en:00:07:51.680
00:10:07.982 : en:00:10:07.982
00:13:06.703 : en:00:13:06.703
00:15:06.739 : en:00:15:06.739
00:18:04.542 : en:00:18:04.542
00:22:58.711 : en:00:22:58.711
00:25:35.325 : en:00:25:35.325
00:31:40.899 : en:00:31:40.899
00:33:29.216 : en:00:33:29.216
00:36:32.816 : en:00:36:32.816
00:38:30.892 : en:00:38:30.892
00:42:05.481 : en:00:42:05.481
00:45:58.214 : en:00:45:58.214
00:48:31.450 : en:00:48:31.450
00:52:57.007 : en:00:52:57.007
00:55:14.353 : en:00:55:14.353
01:00:39.761 : en:01:00:39.761
01:02:56.564 : en:01:02:56.564
01:05:16.788 : en:01:05:16.788
01:10:50.496 : en:01:10:50.496
01:13:37.288 : en:01:13:37.288
01:16:35.216 : en:01:16:35.216
01:18:52.227 : en:01:18:52.227
01:22:48.297 : en:01:22:48.297
01:24:55.340 : en:01:24:55.340
01:28:25.217 : en:01:28:25.217
01:33:18.551 : en:01:33:18.551
01:36:08.763 : en:01:36:08.763
01:41:54.692 : en:01:41:54.692
01:45:23.442 : en:01:45:23.442
01:48:16.490 : en:01:48:16.490
01:51:43.655 : en:01:51:43.655
01:54:43.668 : en:01:54:43.668
01:56:51.504 : en:01:56:51.504

pb.wtf



Скачать Алита: Боевой ангел через торрент http://img15.lostpic.net/2019/07/14/721cff05b96c182b881dde765f6caf6b.jpg Скачать фильм Алита: Боевой ангел через торрент бесплантно в хорошем качестве Описание: Действие фильма происходит через 300 лет после Великой войны в XXVI веке. Доктор Идо находит останки женщины-киборга. После ... 10 10 4
Торрент: Зарегистрирован [2019-07-14 05:56] · скачан: 47 раз
Статус: √ проверено
Размер: 41.5 GB
Как cкачать? Как скачать Алита: Боевой ангел через торрент | qTorrent

% Раздел Тема Автор DL S | L
Ultra HD (UHD: 2K, 4K, 8K) — видео сверхвысокой чёткости [ 22.76 GB ] Алита: Боевой ангел / Alita: Battle Angel [2019 UHD BDRip 2160p] DUB [] + 2xMVO [CВ Студия HDRezka Studio] sheker187 Скачать
2 | 2
3D Фильмы [ 12.55 GB ] Алита: Боевой ангел 3Д / Alita: Battle Angel 3D [2019 BDRip 1080p] [Half OverUnder / Вертикальная анаморфная стереопара] DUB [] bober100 Скачать
5 | 1
Ultra HD (UHD: 2K, 4K, 8K) — видео сверхвысокой чёткости [ 29.59 GB ] Алита: Боевой ангел / Alita: Battle Angel [2019 UHD BDRip 2160p] [SDR] DUB [] + MVO [CВ Студия] sheker187 Скачать
5 | 0
Ultra HD (UHD: 2K, 4K, 8K) — видео сверхвысокой чёткости [ 41.88 GB ] Алита: Боевой ангел / Alita: Battle Angel [2019 UHD BDRemux 2160p] [Локализованная версия] DUB [] 2xMVO [CВ Студия HDRezka Studio] bober100 Скачать
5 | 1
Фильмы [HD 720p, 1080p] (Хороший звук DUB, MVO) [ 8.32 GB ] Алита: Боевой ангел / Alita: Battle Angel [2019 BDRip-HEVC 1080p ] DUB [] bober100 Скачать
14 | 1
3D Фильмы [ 14.53 GB ] Алита: Боевой ангел 3Д / Alita: Battle Angel 3D [2019 BDRip 1080p] [Anamorph SideBySide / Горизонтальная анаморфная стереоп] DUB [] 2xMVO bober100 Скачать
5 | 2
Фильмы (Blu-ray, BD-Remux, HDDVD) [ 38.45 GB ] Алита: Боевой ангел / Alita: Battle Angel [2019 BD Remux 1080p] [2D/3D] DUB [] bober100 Скачать
2 | 0


>> Регистрируемся здесь <<






Отзывы и комментарии о схеме читаем и пишем здесь: ---> Отзывы и комментарии о схеме

Новые благодарочки в телеграм довольных пользователей:
скриншот   скриншот   скриншот   скриншот   скриншот
    Дорогой пользователь! Огромная просьба, поблагодарите релизера, оцените раздачу и оставьте свои комментарий, если Вы скачали Алита: Боевой ангел через торрент бесплатно! Внесите свою лепту в развитие PiratBit!
    Комментировать посты могут только пользователи прошедшие не сложную регистрацию
    Показать сообщения:    

    Алита: Боевой ангел через торрент
    Скачать бесплатно Алита: Боевой ангел
    Алита: Боевой ангел скачать торрент
    Алита: Боевой ангел смотреть онлайн
    Cкачать фильм Алита: Боевой ангел бесплатно
    Алита: Боевой ангел скачать торрент в хорошем качестве
    Алита: Боевой ангел смотреть онлайн бесплатно в хорошем качестве


    Вы не можете начинать темы
    Вы не можете отвечать на сообщения
    Вы не можете редактировать свои сообщения
    Вы не можете удалять свои сообщения
    Вы не можете голосовать в опросах
    Вы не можете прикреплять файлы к сообщениям
    Вы можете скачивать файлы