MEGA SALE -75% Borderlands 3 Super Deluxe всего за 550р. 180 руб. (супер цена). Внимание количество ограничено!!!

iTunes

1+1

iTunes

мы

iTunes

1

iTunes

Чернобыль

iTunes

Ральф против интернета

Лицензия

ПШазам

Лицензия

Игра престолов

Лицензия

30
pack

ВАЖНО

!!Акция!!

Alien_RageХит недели

RePack

Resident Evil 21

ИГРА 18+

pack

RePack

Metro:Exodus

!!Акция!!

Alien_Rage

RePack

fifa19

RePack

Assassins Creed: Odyssey

RePack

NEED FOR SPEED™ PAYBACK

3 сезон

9 сезон

Бесстыжие 9 сезон

Все сериалы

все сериалы на PB.wtf

RePack

FAR CRY 5
Ребята, катастрофически не хватает 1900р. для оплаты серверов за АВГУСТ (всвязи с блокировками трафик упал в 3 раза), 1-2р., выручайте.
  

Фантоцци / Fantozzi (Лучиано Салче / Luciano Salce) [1975, Комедия, WEB-DLRip 1080p от KORSAR] [MVO + AVO] pb.wtf

Фантоцци через торрент pb.wtf

Размер: 6.09 GB | Добавлен: 2 мес. 30 д. назад | Торрент скачан:21 раз
Скачать  

14-07-2019 06:46 Фантоцци Скачать торрент  

Фантоцци / Fantozzi

Страна: Италия
Жанр: Комедия
Год выпуска: 1975
Продолжительность: 01:43:21

Режиссер: Лучиано Салче / Luciano Salce

В ролях: Паоло Вилладжо, Анна Маццамауро, Джиджи Редер, Джузеппе Анатрелли, Умберто Д’Орси, Лью Босисио, Дино Эмануэлли, Плинио Фернандо, Паоло Паолони и др.

Описание: Уго Фантоцци всю жизнь работает младшим бухгалтером, ездит на работу в автобусе, никогда не изменял жене. Начальство ни разу не повысило ему зарплату, женщины его не замечают, а коллеги не помнят, как его зовут. В самом начале первого фильма о недотепе жена звонит ему на работу, так как его нет дома уже 17-ый день, но никто даже не заметил его отсутствия.

Оказывается, его случайно замуровали в отсеке старых лифтов. Зритель узнает Уго, его семью, коллег по работе, о его любви к синьорине Сильвани. Настоящий цирк устраивает он в японском ресторане, а Новый Год, проведенный с Уго, не забудется никогда…

Релиз от:

Продолжительность: 01:43:21
Перевод: Профессиональный многоголосый, авторский
Субтитры: Английские
Навигация по главам: Есть

Качество: WEB-DL 1080p
Формат: MKV

Видео: MPEG-4 AVC, 7472 Кбит/сек, 1920x1040, 25,000 кадров/сек
Аудио #1: AC3, 2 ch, 192 Кбит/сек | Русский, профессиональный (многоголосый закадровый) OPT
Аудио #2: AC3, 2 ch, 192 Кбит/сек | Русский, профессиональный (многоголосый закадровый) R5 Мастер Тейп
Аудио #3: AC3, 2 ch, 192 Кбит/сек | Русский, авторский (одноголосый закадровый) Сергей Козлов
Аудио #4: AC3, 2 ch, 192 Кбит/сек | Русский, авторский (одноголосый закадровый) А. Яблоков (Николай Золотухин)
Аудио #5: AC3, 2 ch, 192 Кбит/сек | Украинский, профессиональный (многоголосый закадровый) СТБ
Аудио #6: EAC3, 2 ch, 224 Кбит/сек | Итальянский, оригинал

Сборка:
Общее
Уникальный идентификатор : 212533576875150026209355804007531074629 (0x9FE47A5D7F58989B84FCD82BA970D445)
Полное имя : Фантоцци.1975.WEB-DL.1080p.mkv
Формат : Matroska
Версия формата : Version 2
Размер файла : 6,37 Гбайт
Продолжительность : 1 ч. 43 м.
Режим общего битрейта : Переменный
Общий поток : 8824 Кбит/сек
Дата кодирования : UTC 2018-08-14 08:02:48
Программа кодирования : mkvmerge v5.8.0 ('No Sleep / Pillow') built on Sep 2 2012 15:37:04
Библиотека кодирования : libebml v1.2.3 + libmatroska v1.3.0

Видео
Идентификатор : 1
Формат : AVC
Формат/Информация : Advanced Video Codec
Профиль формата : High@L4
Настройки формата : CABAC / 4 Ref Frames
Параметр CABAC формата : Да
Параметр RefFrames формата : 4 кадра
Идентификатор кодека : V_MPEG4/ISO/AVC
Продолжительность : 1 ч. 43 м.
Вид битрейта : Переменный
Битрейт : 7465 Кбит/сек
Максимальный битрейт : 15,0 Мбит/сек
Ширина : 1920 пикселей
Высота : 1040 пикселей
Соотношение сторон : 1,85:1
Режим частоты кадров : Постоянный
Частота кадров : 25,000 кадров/сек
Цветовое пространство : YUV
Субдискретизация насыщенности : 4:2:0
Битовая глубина : 8 бит
Тип развёртки : Прогрессивная
Бит/(Пиксели*Кадры) : 0.150
Размер потока : 5,39 Гбайт (85%)
Язык : Italian
По умолчанию : Да
Принудительно : Нет
Цветовой диапазон : Limited
Основные цвета : BT.709
Характеристики трансфера : BT.709
Коэффициенты матрицы : BT.709

Аудио #1
Идентификатор : 2
Формат : AC-3
Формат/Информация : Audio Coding 3
Идентификатор кодека : A_AC3
Продолжительность : 1 ч. 43 м.
Вид битрейта : Постоянный
Битрейт : 192 Кбит/сек
Каналы : 2 канала
Расположение каналов : Front: L R
Частота : 48,0 КГц
Частота кадров : 31,250 кадров/сек (1536 SPF)
Битовая глубина : 16 бит
Метод сжатия : С потерями
Размер потока : 142 Мбайт (2%)
Заголовок : MVO | OPT
Язык : Russian
По умолчанию : Да
Принудительно : Нет

Аудио #2
Идентификатор : 3
Формат : AC-3
Формат/Информация : Audio Coding 3
Идентификатор кодека : A_AC3
Продолжительность : 1 ч. 43 м.
Вид битрейта : Постоянный
Битрейт : 192 Кбит/сек
Каналы : 2 канала
Расположение каналов : Front: L R
Частота : 48,0 КГц
Частота кадров : 31,250 кадров/сек (1536 SPF)
Битовая глубина : 16 бит
Метод сжатия : С потерями
Размер потока : 142 Мбайт (2%)
Заголовок : MVO | R5 Мастер Тейп
Язык : Russian
По умолчанию : Нет
Принудительно : Нет

Аудио #3
Идентификатор : 4
Формат : AC-3
Формат/Информация : Audio Coding 3
Идентификатор кодека : A_AC3
Продолжительность : 1 ч. 43 м.
Вид битрейта : Постоянный
Битрейт : 192 Кбит/сек
Каналы : 2 канала
Расположение каналов : Front: L R
Частота : 48,0 КГц
Частота кадров : 31,250 кадров/сек (1536 SPF)
Битовая глубина : 16 бит
Метод сжатия : С потерями
Размер потока : 142 Мбайт (2%)
Заголовок : AVO | С. Козлов
Язык : Russian
По умолчанию : Нет
Принудительно : Нет

Аудио #4
Идентификатор : 5
Формат : AC-3
Формат/Информация : Audio Coding 3
Идентификатор кодека : A_AC3
Продолжительность : 1 ч. 43 м.
Вид битрейта : Постоянный
Битрейт : 192 Кбит/сек
Каналы : 2 канала
Расположение каналов : Front: L R
Частота : 48,0 КГц
Частота кадров : 31,250 кадров/сек (1536 SPF)
Битовая глубина : 16 бит
Метод сжатия : С потерями
Размер потока : 142 Мбайт (2%)
Заголовок : AVO | А. Яблоков
Язык : Russian
По умолчанию : Нет
Принудительно : Нет

Аудио #5
Идентификатор : 6
Формат : AC-3
Формат/Информация : Audio Coding 3
Идентификатор кодека : A_AC3
Продолжительность : 1 ч. 43 м.
Вид битрейта : Постоянный
Битрейт : 192 Кбит/сек
Каналы : 2 канала
Расположение каналов : Front: L R
Частота : 48,0 КГц
Частота кадров : 31,250 кадров/сек (1536 SPF)
Битовая глубина : 16 бит
Метод сжатия : С потерями
Размер потока : 142 Мбайт (2%)
Заголовок : MVO | СТБ
Язык : Ukrainian
По умолчанию : Нет
Принудительно : Нет

Аудио #6
Идентификатор : 7
Формат : E-AC-3
Формат/Информация : Enhanced Audio Coding 3
Идентификатор кодека : A_EAC3
Продолжительность : 1 ч. 43 м.
Вид битрейта : Постоянный
Битрейт : 224 Кбит/сек
Каналы : 2 канала
Расположение каналов : Front: L R
Частота : 48,0 КГц
Частота кадров : 187,500 кадров/сек (256 SPF)
Метод сжатия : С потерями
Размер потока : 166 Мбайт (3%)
Заголовок : Originale
Язык : Italian
По умолчанию : Нет
Принудительно : Нет

Текст #1
Идентификатор : 8
Формат : UTF-8
Идентификатор кодека : S_TEXT/UTF8
Идентификатор кодека/Информация : UTF-8 Plain Text
Язык : English
По умолчанию : Нет
Принудительно : Нет

Текст #2
Идентификатор : 9
Формат : UTF-8
Идентификатор кодека : S_TEXT/UTF8
Идентификатор кодека/Информация : UTF-8 Plain Text
Заголовок : SDH
Язык : English
По умолчанию : Нет
Принудительно : Нет

Меню
00:00:00.000 : en:Chapter 1
00:03:23.144 : en:Chapter 2
00:04:59.424 : en:Chapter 3
00:11:25.224 : en:Chapter 4
00:18:06.424 : en:Chapter 5
00:24:30.904 : en:Chapter 6
00:33:22.104 : en:Chapter 7
00:36:12.944 : en:Chapter 8
00:44:25.104 : en:Chapter 9
00:50:36.544 : en:Chapter 10
00:59:04.104 : en:Chapter 11
01:03:04.864 : en:Chapter 12
01:09:13.424 : en:Chapter 13
01:18:43.224 : en:Chapter 14
01:26:20.264 : en:Chapter 15
01:31:12.064 : en:Chapter 16
01:34:16.104 : en:Chapter 17
01:41:16.264 : en:Chapter 18
• Исходник видео WEB-DL Amazon.
• Полная версия фильма.
• На фрагмент в клинике (01:03:04 > 01:09:11), во все переводы, вставлен одноголосый Захарова, Спасибо - Cocotte32.
pb.wtf



Скачать Фантоцци через торрент https://c.radikal.ru/c11/1907/40/c95b55ccc59e.png Скачать фильм Фантоцци через торрент бесплантно в хорошем качестве Описание: Уго Фантоцци всю жизнь работает младшим бухгалтером, ездит на работу в автобусе, никогда не изменял жене. Начальство ни разу не ... 5 10 1
Торрент: Зарегистрирован [2019-07-14 06:46] · скачан: 21 раз
Статус: √ проверено
Размер: 6.09 GB
Как cкачать? Как скачать Фантоцци через торрент | qTorrent

% Раздел Тема Автор DL S | L
Фильмы до 2000 г. [ 1.23 GB ] Фантоцци 2000 – Клонирование / Fantozzi 2000 - La clonazione [1999 DVDRip ] schultz Скачать
1 | 0
Классика зарубежного кино [ 1.37 GB ] У Фантоцци опять неприятности / Fantozzi subisce ancora [1983 DVDRip MVO] sacs Скачать
1 | 0
Фильмы до 2000 г. [ 1.37 GB ] Фантоцци в раю / Fantozzi in paradiso [1993 DVDRip MVO] sacs Скачать
1 | 0
Фильмы до 2000 г. [ 1.47 GB ] Второй трагический Фантоцци / Il secondo tragico Fantozzi [1976 DVDRip MVO] sacs Скачать
1 | 0
Фильмы до 2000 г. [ 1.37 GB ] Фантоцци / Fantozzi [1975 DVDRip MVO] sacs Скачать
1 | 0
Фильмы до 2000 г. [ 1.37 GB ] Второй трагический Фантоцци / Secondo tragico Fantozzi Il [1976 DVDRip] slaventi-69 Скачать
1 | 0
Фильмы до 2000 г. [ 1.37 GB ] Фантоцци / Fantozzi [1975 DVDRip] slaventi-69 Скачать
1 | 0


Последний раз редактировалось: filbi1976 (2019-07-14 06:57), всего редактировалось 1 раз


>> Регистрируемся здесь <<






Отзывы и комментарии о схеме читаем и пишем здесь: ---> Отзывы и комментарии о схеме

Новые благодарочки в телеграм довольных пользователей:
скриншот   скриншот   скриншот   скриншот   скриншот
    Дорогой пользователь! Огромная просьба, поблагодарите релизера, оцените раздачу и оставьте свои комментарий, если Вы скачали Фантоцци через торрент бесплатно! Внесите свою лепту в развитие PiratBit!
    Комментировать посты могут только пользователи прошедшие не сложную регистрацию
    Показать сообщения:    

    Фантоцци через торрент
    Скачать бесплатно Фантоцци
    Фантоцци скачать торрент
    Фантоцци смотреть онлайн
    Cкачать фильм Фантоцци бесплатно
    Фантоцци скачать торрент в хорошем качестве
    Фантоцци смотреть онлайн бесплатно в хорошем качестве


    Вы не можете начинать темы
    Вы не можете отвечать на сообщения
    Вы не можете редактировать свои сообщения
    Вы не можете удалять свои сообщения
    Вы не можете голосовать в опросах
    Вы не можете прикреплять файлы к сообщениям
    Вы можете скачивать файлы