Мега распродажа FORZA HORIZON 4 ULTIMATE+ВСЕ DLC+ОНЛАЙН всего за 499р. 349 руб. (супер цена). Внимание количество ограничено!!!

iTunes

1+1

iTunes

мы

iTunes

1

1 сезон

Чернобыль

1 сезон

Ральф против интернета

Лицензия

ПШазам

8 сезон

Игра престолов

Лицензия

30
pack

ВАЖНО

!!Акция!!

Alien_RageХит недели

RePack

Resident Evil 21

ИГРА 18+

pack

RePack

Metro:Exodus

!!Акция!!

Alien_Rage

RePack

fifa19

RePack

Assassins Creed: Odyssey

RePack

NEED FOR SPEED™ PAYBACK

3 сезон

9 сезон

Бесстыжие 9 сезон

Все сериалы

все сериалы на PB.wtf

RePack

FAR CRY 5
Ребята, катастрофически не хватает 2730р. для оплаты серверов за ИЮНЬ (всвязи с блокировками трафик упал в 3 раза), 1-2р., выручайте.
  

Увлекшийся / Фермер / Carried Away (Бруно Баррето / Bruno Barreto) [1996, драма, мелодрама, WEB-DL 1080p] [DVO] pb.wtf

Увлекшийся через торрент pb.wtf

Размер: 10.07 GB | Добавлен: 2 д. 18 ч. назад | Торрент скачан:10 раз
Скачать  

14-07-2019 07:10 Увлекшийся Скачать торрент  

Увлекшийся / Фермер / Carried Away Страна: США
Студия: New Line Cinema, Cinetel Films, Fine Line Features
Жанр: драма, мелодрама
Год выпуска: 1996
Продолжительность: 01:48:55

Режиссер: Бруно Баррето / Bruno Barreto

В ролях: Деннис Хоппер, Эми Ирвинг, Эми Локейн, Джули Харрис, Гэри Бьюзи, Хэл Холбрук, Кристофер Петтиет, Присцилла Пойнтер, Гэйл Кронау, Алисса Элбан, Джо Стивенс, Конни Купер, Элис Лестер

Описание: Действие картины разворачивается на фоне великолепного пейзажа Северной Америки. Влечение немолодого человека к 17-летней красавице переворачивает с ног на голову его спокойную и размеренную жизнь. Это, казалось бы, невинное увлечение молодой девушкой незаметно превращается в большую, страстную любовь.

Релиз от:

Тип релиза: WEB-DL 720p
Контейнер: MKV

Качество: WEB-DL 1080p
Видео: MPEG-4 AVC, 12,5 Мбит/сек, 1920x1080, 23,976 кадра/сек
Аудио #1: AC3, 2 ch, 224 Кбит/сек | Русский, профессиональный (двухголосый закадровый) VHS
Аудио #2: EAC3, 2 ch, 224 Кбит/сек | Английский, оригинал
Общее
Уникальный идентификатор : 228589242839451228076176131757891532697 (0xABF8AFD07B5A0FE2A92F166801FA3799)
Полное имя : Увлекшийся.1996.WEB-DL.1080p.mkv
Формат : Matroska
Версия формата : Version 2
Размер файла : 10,1 Гбайт
Продолжительность : 1 ч. 48 м.
Режим общего битрейта : Переменный
Общий поток : 13,2 Мбит/сек
Дата кодирования : UTC 2018-04-10 15:28:06
Программа кодирования : mkvmerge v5.8.0 ('No Sleep / Pillow') built on Sep 2 2012 15:37:04
Библиотека кодирования : libebml v1.2.3 + libmatroska v1.3.0

Видео
Идентификатор : 1
Формат : AVC
Формат/Информация : Advanced Video Codec
Профиль формата : High@L4
Настройки формата : CABAC / 4 Ref Frames
Параметр CABAC формата : Да
Параметр RefFrames формата : 4 кадра
Идентификатор кодека : V_MPEG4/ISO/AVC
Продолжительность : 1 ч. 48 м.
Вид битрейта : Переменный
Битрейт : 12,5 Мбит/сек
Максимальный битрейт : 15,0 Мбит/сек
Ширина : 1920 пикселей
Высота : 1080 пикселей
Соотношение сторон : 16:9
Режим частоты кадров : Постоянный
Частота кадров : 23,976 (24000/1001) кадра/сек
Цветовое пространство : YUV
Субдискретизация насыщенности : 4:2:0
Битовая глубина : 8 бит
Тип развёртки : Прогрессивная
Бит/(Пиксели*Кадры) : 0.252
Размер потока : 9,53 Гбайт (95%)
Язык : English
Default : Да
Forced : Нет
Цветовой диапазон : Limited
Основные цвета : BT.709
Характеристики трансфера : BT.709
Коэффициенты матрицы : BT.709

Аудио #1
Идентификатор : 2
Формат : AC-3
Формат/Информация : Audio Coding 3
Идентификатор кодека : A_AC3
Продолжительность : 1 ч. 48 м.
Вид битрейта : Постоянный
Битрейт : 224 Кбит/сек
Каналы : 2 канала
Расположение каналов : Front: L R
Частота : 48,0 КГц
Частота кадров : 31,250 кадров/сек (1536 SPF)
Битовая глубина : 16 бит
Метод сжатия : С потерями
Размер потока : 174 Мбайт (2%)
Заголовок : DVO | VHS
Язык : Russian
По умолчанию : Да
Принудительно : Нет

Аудио #2
Идентификатор : 3
Формат : E-AC-3
Формат/Информация : Enhanced Audio Coding 3
Идентификатор кодека : A_EAC3
Продолжительность : 1 ч. 48 м.
Вид битрейта : Постоянный
Битрейт : 224 Кбит/сек
Каналы : 2 канала
Расположение каналов : Front: L R
Частота : 48,0 КГц
Частота кадров : 187,500 кадров/сек (256 SPF)
Метод сжатия : С потерями
Размер потока : 174 Мбайт (2%)
Заголовок : Original
Язык : English
По умолчанию : Нет
Принудительно : Нет

Текст #1
Идентификатор : 4
Формат : UTF-8
Идентификатор кодека : S_TEXT/UTF8
Идентификатор кодека/Информация : UTF-8 Plain Text
Заголовок : 1
Язык : English
По умолчанию : Нет
Принудительно : Нет

Текст #2
Идентификатор : 5
Формат : UTF-8
Идентификатор кодека : S_TEXT/UTF8
Идентификатор кодека/Информация : UTF-8 Plain Text
Заголовок : 2
Язык : English
По умолчанию : Нет
Принудительно : Нет

Текст #3
Идентификатор : 6
Формат : UTF-8
Идентификатор кодека : S_TEXT/UTF8
Идентификатор кодека/Информация : UTF-8 Plain Text
Заголовок : SDH
Язык : English
По умолчанию : Нет
Принудительно : Нет

Текст #4
Идентификатор : 7
Формат : UTF-8
Идентификатор кодека : S_TEXT/UTF8
Идентификатор кодека/Информация : UTF-8 Plain Text
Язык : Finnish
По умолчанию : Нет
Принудительно : Нет

Меню
00:00:00.000 : en:Chapter 1
00:11:17.912 : en:Chapter 2
00:20:37.912 : en:Chapter 3
00:30:09.912 : en:Chapter 4
00:39:33.912 : en:Chapter 5
00:49:59.912 : en:Chapter 6
01:00:04.912 : en:Chapter 7
01:10:37.912 : en:Chapter 8
01:20:18.912 : en:Chapter 9
01:29:59.912 : en:Chapter 10
01:39:49.912 : en:Chapter 11
• Исходник видео WEB-DL Amazon.
pb.wtf



Скачать Увлекшийся через торрент https://d.radikal.ru/d10/1907/48/72ac086907a3.png Скачать фильм Увлекшийся через торрент бесплантно в хорошем качестве Описание: Действие картины разворачивается на фоне великолепного пейзажа Северной Америки. Влечение немолодого человека к 17-летней ... 5 10 1
Торрент: Зарегистрирован [2019-07-14 07:10] · скачан: 10 раз
Статус: √ проверено
Размер: 10.07 GB
Как cкачать? Как скачать Увлекшийся через торрент | qTorrent


>> Регистрируемся здесь <<






Отзывы и комментарии о схеме читаем и пишем здесь: ---> Отзывы и комментарии о схеме

Новые благодарочки в телеграм довольных пользователей:
скриншот   скриншот   скриншот   скриншот   скриншот
    Дорогой пользователь! Огромная просьба, поблагодарите релизера, оцените раздачу и оставьте свои комментарий, если Вы скачали Увлекшийся через торрент бесплатно! Внесите свою лепту в развитие PiratBit!
    Комментировать посты могут только пользователи прошедшие не сложную регистрацию
    Показать сообщения:    

    Увлекшийся через торрент
    Скачать бесплатно Увлекшийся
    Увлекшийся скачать торрент
    Увлекшийся смотреть онлайн
    Cкачать фильм Увлекшийся бесплатно
    Увлекшийся скачать торрент в хорошем качестве
    Увлекшийся смотреть онлайн бесплатно в хорошем качестве


    Вы не можете начинать темы
    Вы не можете отвечать на сообщения
    Вы не можете редактировать свои сообщения
    Вы не можете удалять свои сообщения
    Вы не можете голосовать в опросах
    Вы не можете прикреплять файлы к сообщениям
    Вы можете скачивать файлы