MEGA SALE -75% Borderlands 3 Super Deluxe всего за 550р. 180 руб. (супер цена). Внимание количество ограничено!!!

iTunes

1+1

iTunes

мы

iTunes

1

iTunes

Чернобыль

iTunes

Ральф против интернета

Лицензия

ПШазам

Лицензия

Игра престолов

Лицензия

30
pack

ВАЖНО

!!Акция!!

Alien_RageХит недели

RePack

Resident Evil 21

ИГРА 18+

pack

RePack

Metro:Exodus

!!Акция!!

Alien_Rage

RePack

fifa19

RePack

Assassins Creed: Odyssey

RePack

NEED FOR SPEED™ PAYBACK

3 сезон

9 сезон

Бесстыжие 9 сезон

Все сериалы

все сериалы на PB.wtf

RePack

FAR CRY 5
Ребята, катастрофически не хватает 1900р. для оплаты серверов за АВГУСТ (всвязи с блокировками трафик упал в 3 раза), 1-2р., выручайте.
  

Переключая каналы / Switching Channels (Тед Котчефф / Ted Kotcheff) [1988, комедия, WEB-DLRip 720p от KORSAR] [DUB+DVO+AVO] pb.wtf

Переключая каналы через торрент pb.wtf

Размер: 4.9 GB | Добавлен: 2 мес. 30 д. назад | Торрент скачан:17 раз
Скачать  

14-07-2019 08:05 Переключая каналы Скачать торрент  

Переключая каналы / Switching Channels

Страна: США
Жанр: комедия
Год выпуска: 1988
Продолжительность: 01:44:30
Режиссер: Тед Котчефф / Ted Kotcheff

В ролях: Кэтлин Тёрнер, Берт Рейнолдс, Кристофер Рив, Нед Битти, Генри Гибсон, Джордж Ньюберн, Эл Уоксмен, Кен Джеймс, Бэрри Флэтмэн, Тед Симонетт

Описание: Репортер программы новостей Кристи решает оставить свою работу, чтобы выйти замуж за богатого и влиятельного Блэйне, но ее босс и экс-муж не собирается уступать так легко и пытается сорвать ее планы.

Релиз от:

Продолжительность: 01:44:30
Перевод: Дублированный, профессиональный двухголосый, авторский
Субтитры: Русские, английские
Навигация по главам: Есть

Качество: WEB-DLRip 720p
Формат: MKV

Видео: MPEG-4 AVC, 5373 Кбит/сек, 1276x720, 23,976 кадра/сек
Аудио #1: AC3, 2 ch, 192 Кбит/сек | Русский, профессиональный (полное дублирование) Советский дубляж
Аудио #2: AC3, 6 ch, 384 Кбит/сек | Русский, профессиональный (двухголосый закадровый)
Аудио #3: AC3, 6 ch, 384 Кбит/сек | Русский, авторский (одноголосый закадровый) Алексей Михалёв
Аудио #4: AC3, 6 ch, 384 Кбит/сек | Английский, оригинал
x264 [info]: frame I:907 Avg QP:17.15 size:120238
x264 [info]: frame P:34354 Avg QP:20.12 size: 54230
x264 [info]: frame B:115079 Avg QP:21.77 size: 19453
-----------------------------------------------------
Общее
Уникальный идентификатор : 222516640018236755924106228152026288378 (0xA767256124F6A1879F487DF17D7C50FA)
Полное имя : Переключая.каналы.1988.WEB-DLRip.720p.KORSAR.mkv
Формат : Matroska
Версия формата : Version 2
Размер файла : 4,90 Гбайт
Продолжительность : 1 ч. 44 м.
Общий поток : 6719 Кбит/сек
Дата кодирования : UTC 2018-03-31 18:27:12
Программа кодирования : mkvmerge v5.8.0 ('No Sleep / Pillow') built on Sep 2 2012 15:37:04
Библиотека кодирования : libebml v1.2.3 + libmatroska v1.3.0

Видео
Идентификатор : 1
Формат : AVC
Формат/Информация : Advanced Video Codec
Профиль формата : High@L4.1
Настройки формата : CABAC / 9 Ref Frames
Параметр CABAC формата : Да
Параметр RefFrames формата : 9 кадров
Идентификатор кодека : V_MPEG4/ISO/AVC
Продолжительность : 1 ч. 44 м.
Битрейт : 5373 Кбит/сек
Ширина : 1276 пикселей
Высота : 720 пикселей
Соотношение сторон : 16:9
Режим частоты кадров : Постоянный
Частота кадров : 23,976 (24000/1001) кадра/сек
Цветовое пространство : YUV
Субдискретизация насыщенности : 4:2:0
Битовая глубина : 8 бит
Тип развёртки : Прогрессивная
Бит/(Пиксели*Кадры) : 0.244
Размер потока : 3,83 Гбайт (78%)
Заголовок : RIP | MZMA
Библиотека кодирования : x264 core 152 r2851kMod ba24899
Настройки программы : cabac=1 / ref=9 / deblock=1:-2:-2 / analyse=0x3:0x113 / me=umh / subme=11 / psy=1 / fade_compensate=0.00 / psy_rd=1.00:0.00 / mixed_ref=1 / me_range=48 / chroma_me=1 / trellis=2 / 8x8dct=1 / cqm=0 / deadzone=21,11 / fast_pskip=0 / chroma_qp_offset=-2 / threads=6 / lookahead_threads=1 / sliced_threads=0 / nr=0 / decimate=0 / interlaced=0 / bluray_compat=0 / constrained_intra=0 / bframes=16 / b_pyramid=2 / b_adapt=2 / b_bias=0 / direct=3 / weightb=1 / open_gop=0 / weightp=2 / keyint=240 / keyint_min=23 / scenecut=40 / intra_refresh=0 / rc_lookahead=40 / rc=2pass / mbtree=0 / bitrate=5373 / ratetol=1.0 / qcomp=0.60 / qpmin=0 / qpmax=69 / qpstep=4 / cplxblur=20.0 / qblur=0.5 / vbv_maxrate=50000 / vbv_bufsize=62500 / nal_hrd=none / filler=0 / ip_ratio=1.40 / pb_ratio=1.30 / aq=1:0.70
Язык : English
Default : Да
Forced : Нет
Цветовой диапазон : Limited
Основные цвета : BT.709
Характеристики трансфера : BT.709
Коэффициенты матрицы : BT.709

Аудио #1
Идентификатор : 2
Формат : AC-3
Формат/Информация : Audio Coding 3
Идентификатор кодека : A_AC3
Продолжительность : 1 ч. 44 м.
Вид битрейта : Постоянный
Битрейт : 192 Кбит/сек
Каналы : 2 канала
Расположение каналов : Front: L R
Частота : 48,0 КГц
Частота кадров : 31,250 кадров/сек (1536 SPF)
Битовая глубина : 16 бит
Метод сжатия : С потерями
Размер потока : 144 Мбайт (3%)
Заголовок : DUB | Советский дубляж
Язык : Russian
По умолчанию : Да
Принудительно : Нет

Аудио #2
Идентификатор : 3
Формат : AC-3
Формат/Информация : Audio Coding 3
Идентификатор кодека : A_AC3
Продолжительность : 1 ч. 44 м.
Вид битрейта : Постоянный
Битрейт : 384 Кбит/сек
Каналы : 6 каналов
Расположение каналов : Front: L C R, Side: L R, LFE
Частота : 48,0 КГц
Частота кадров : 31,250 кадров/сек (1536 SPF)
Битовая глубина : 16 бит
Метод сжатия : С потерями
Размер потока : 287 Мбайт (6%)
Заголовок : DVO
Язык : Russian
По умолчанию : Нет
Принудительно : Нет

Аудио #3
Идентификатор : 4
Формат : AC-3
Формат/Информация : Audio Coding 3
Идентификатор кодека : A_AC3
Продолжительность : 1 ч. 44 м.
Вид битрейта : Постоянный
Битрейт : 384 Кбит/сек
Каналы : 6 каналов
Расположение каналов : Front: L C R, Side: L R, LFE
Частота : 48,0 КГц
Частота кадров : 31,250 кадров/сек (1536 SPF)
Битовая глубина : 16 бит
Метод сжатия : С потерями
Размер потока : 287 Мбайт (6%)
Заголовок : AVO | А. Михалев
Язык : Russian
По умолчанию : Нет
Принудительно : Нет

Аудио #4
Идентификатор : 5
Формат : AC-3
Формат/Информация : Audio Coding 3
Идентификатор кодека : A_AC3
Продолжительность : 1 ч. 44 м.
Вид битрейта : Постоянный
Битрейт : 384 Кбит/сек
Каналы : 6 каналов
Расположение каналов : Front: L C R, Side: L R, LFE
Частота : 48,0 КГц
Частота кадров : 31,250 кадров/сек (1536 SPF)
Битовая глубина : 16 бит
Метод сжатия : С потерями
Размер потока : 287 Мбайт (6%)
Заголовок : Original
Язык : English
По умолчанию : Нет
Принудительно : Нет

Текст #1
Идентификатор : 6
Формат : UTF-8
Идентификатор кодека : S_TEXT/UTF8
Идентификатор кодека/Информация : UTF-8 Plain Text
Язык : Russian
По умолчанию : Нет
Принудительно : Нет

Текст #2
Идентификатор : 7
Формат : UTF-8
Идентификатор кодека : S_TEXT/UTF8
Идентификатор кодека/Информация : UTF-8 Plain Text
Заголовок : SDH
Язык : English
По умолчанию : Нет
Принудительно : Нет

Меню
00:00:00.000 : en:Chapter 01
00:03:50.713 : en:Chapter 02
00:07:43.321 : en:Chapter 03
00:15:59.983 : en:Chapter 04
00:19:22.769 : en:Chapter 05
00:25:09.240 : en:Chapter 06
00:33:18.855 : en:Chapter 07
00:39:36.774 : en:Chapter 08
00:43:43.479 : en:Chapter 09
00:50:34.473 : en:Chapter 10
00:56:58.356 : en:Chapter 11
01:01:45.184 : en:Chapter 12
01:06:54.785 : en:Chapter 13
01:12:54.269 : en:Chapter 14
01:17:36.218 : en:Chapter 15
01:24:44.562 : en:Chapter 16
01:33:22.913 : en:Chapter 17
01:42:00.180 : en:Chapter 18
pb.wtf



Скачать Переключая каналы через торрент http://s018.radikal.ru/i515/1308/9e/110705aa23ad.jpg Скачать фильм Переключая каналы через торрент бесплантно в хорошем качестве Описание: Репортер программы новостей Кристи решает оставить свою работу, чтобы выйти замуж за богатого и влиятельного Блэйне, но ее босс и ... 10 10 2
Торрент: Зарегистрирован [2019-07-14 08:05] · скачан: 17 раз
Статус: √ проверено
Размер: 4.9 GB
Как cкачать? Как скачать Переключая каналы через торрент | qTorrent


>> Регистрируемся здесь <<






Отзывы и комментарии о схеме читаем и пишем здесь: ---> Отзывы и комментарии о схеме

Новые благодарочки в телеграм довольных пользователей:
скриншот   скриншот   скриншот   скриншот   скриншот

14-07-2019 08:51 Переключая каналы Скачать торрент  

советский дубляж да ещё Михалёв.просто супер

большущее спасибоpb.wtf



    Дорогой пользователь! Огромная просьба, поблагодарите релизера, оцените раздачу и оставьте свои комментарий, если Вы скачали Переключая каналы через торрент бесплатно! Внесите свою лепту в развитие PiratBit!
    Комментировать посты могут только пользователи прошедшие не сложную регистрацию
    Показать сообщения:    

    Переключая каналы через торрент
    Скачать бесплатно Переключая каналы
    Переключая каналы скачать торрент
    Переключая каналы смотреть онлайн
    Cкачать фильм Переключая каналы бесплатно
    Переключая каналы скачать торрент в хорошем качестве
    Переключая каналы смотреть онлайн бесплатно в хорошем качестве


    Вы не можете начинать темы
    Вы не можете отвечать на сообщения
    Вы не можете редактировать свои сообщения
    Вы не можете удалять свои сообщения
    Вы не можете голосовать в опросах
    Вы не можете прикреплять файлы к сообщениям
    Вы можете скачивать файлы