Мега распродажа FORZA HORIZON 4 ULTIMATE+ВСЕ DLC+ОНЛАЙН всего за 499р. 349 руб. (супер цена). Внимание количество ограничено!!!

iTunes

1+1

iTunes

мы

iTunes

1

1 сезон

Чернобыль

1 сезон

Ральф против интернета

Лицензия

ПШазам

8 сезон

Игра престолов

Лицензия

30
pack

ВАЖНО

!!Акция!!

Alien_RageХит недели

RePack

Resident Evil 21

ИГРА 18+

pack

RePack

Metro:Exodus

!!Акция!!

Alien_Rage

RePack

fifa19

RePack

Assassins Creed: Odyssey

RePack

NEED FOR SPEED™ PAYBACK

3 сезон

9 сезон

Бесстыжие 9 сезон

Все сериалы

все сериалы на PB.wtf

RePack

FAR CRY 5
Ребята, катастрофически не хватает 2730р. для оплаты серверов за ИЮНЬ (всвязи с блокировками трафик упал в 3 раза), 1-2р., выручайте.
  

Третья ракета (Ричард Викторов) [1963, СССР, драма, военный, DVDRip от AVP Studio] pb.wtf

Третья ракета через торрент pb.wtf

Раздают: 4 [ 0 KB/s ]
Размер: 742 MB | Добавлен: 2 д. 17 ч. назад | Торрент скачан:2 раза
Скачать  

14-07-2019 08:29 Третья ракета Скачать торрент  

Третья ракета
Страна: СССР
Производство: Беларусьфильм

Жанр: драма, военный
Год выпуска: 1963
Продолжительность: 01:16:15

Перевод: Не требуется
Cубтитры: нет
Оригинальная аудиодорожка: русский

Режиссер: Ричард Викторов

В ролях:
Станислав Любшин, Георгий Жжёнов, Спартак Федотов, Надежда Семенцова, Игорь Комаров, Юрий Дубровин (II), Леонид Давыдов-Субоч...
Об актёрах подробней

Описание:
Судьба свела на передовой, в одном окопе, очень разных людей, которым вместе предстояло выдержать первую танковую атаку немцев…

Источник: DVD5 R5
Качество видео: DVDRip
Формат видео: AVI

Видео: 688х512 (4:3), 25,000 fps, XviD ~ 1159 kbps avg, 0.132 bit/pixel
Аудио: 48 kHz, Dolby Digital AC3 2.0, 192 kbps

Раздача от:
Общее
Полное имя : Тretya.raketa.1963.DVDRip_[New-team]_by_AVP_Studio.avi
Формат : AVI
Формат/Информация : Audio Video Interleave
Размер файла : 742 Мбайт
Продолжительность : 1 ч. 16 м.
Общий поток : 1361 Кбит/сек
Программа кодирования : VirtualDubMod 1.5.10.3 | www.virtualdub-fr.org || (build 2550/release)
Библиотека кодирования : VirtualDubMod build 2550/release

Видео
Идентификатор : 0
Формат : MPEG-4 Visual
Профиль формата : Advanced Simple@L5
Настройки формата : BVOP1 / Custom Matrix
Параметр BVOP формата : 1
Параметр QPel формата : Нет
Параметр GMC формата : Без точки перехода
Параметр матрицы формата : Выборочная
Идентификатор кодека : XVID
Идентификатор кодека/Подсказка : XviD
Продолжительность : 1 ч. 16 м.
Битрейт : 1159 Кбит/сек
Ширина : 688 пикселей
Высота : 512 пикселей
Соотношение сторон : 4:3
Частота кадров : 25,000 кадров/сек
Цветовое пространство : YUV
Субдискретизация насыщенности : 4:2:0
Битовая глубина : 8 бит
Тип развёртки : Прогрессивная
Метод сжатия : С потерями
Бит/(Пиксели*Кадры) : 0.132
Размер потока : 632 Мбайт (85%)
Библиотека кодирования : XviD 73

Аудио
Идентификатор : 1
Формат : AC-3
Формат/Информация : Audio Coding 3
Коммерческое название : Dolby Digital
Идентификатор кодека : 2000
Продолжительность : 1 ч. 16 м.
Вид битрейта : Постоянный
Битрейт : 192 Кбит/сек
Каналы : 2 канала
ChannelLayout : L R
Частота : 48,0 КГц
Частота кадров : 31,250 кадров/сек (1536 SPF)
Битовая глубина : 16 бит
Метод сжатия : С потерями
Размер потока : 105 Мбайт (14%)
Выравнивание : Разделение по промежуткам
Продолжительность промежутка : 40 мс. (1,00 видеокадр)
Время предзагрузки промежутка : 500 мс
pb.wtf



Скачать Третья ракета через торрент http://picplus.ru/img/1907/14/1e0f0121.png Скачать фильм Третья ракета через торрент бесплантно в хорошем качестве Описание:Судьба свела на передовой, в одном окопе, очень разных людей, которым вместе предстояло выдержать первую танковую атаку немцев… ... 10 10 1
Торрент: Зарегистрирован [2019-07-14 08:29] · скачан: 2 раз
Статус: √ проверено
Размер: 742 MB
Как cкачать? Как скачать Третья ракета через торрент | qTorrent

% Раздел Тема Автор DL S | L
Кино СССР [ 840 MB ] Третья ракета [1963 СССР военный DVDRip-AVC от AVP Studio] AVP Studio Скачать
9 | 1
Кино СССР [ 1.33 GB ] Третья ракета [1963 военный DVDRip] шурка Скачать
1 | 0


>> Регистрируемся здесь <<






Отзывы и комментарии о схеме читаем и пишем здесь: ---> Отзывы и комментарии о схеме

Новые благодарочки в телеграм довольных пользователей:
скриншот   скриншот   скриншот   скриншот   скриншот
    Дорогой пользователь! Огромная просьба, поблагодарите релизера, оцените раздачу и оставьте свои комментарий, если Вы скачали Третья ракета через торрент бесплатно! Внесите свою лепту в развитие PiratBit!
    Комментировать посты могут только пользователи прошедшие не сложную регистрацию
    Показать сообщения:    

    Третья ракета через торрент
    Скачать бесплатно Третья ракета
    Третья ракета скачать торрент
    Третья ракета смотреть онлайн
    Cкачать фильм Третья ракета бесплатно
    Третья ракета скачать торрент в хорошем качестве
    Третья ракета смотреть онлайн бесплатно в хорошем качестве


    Вы не можете начинать темы
    Вы не можете отвечать на сообщения
    Вы не можете редактировать свои сообщения
    Вы не можете удалять свои сообщения
    Вы не можете голосовать в опросах
    Вы не можете прикреплять файлы к сообщениям
    Вы можете скачивать файлы