Мега распродажа FORZA HORIZON 4 ULTIMATE+ВСЕ DLC+ОНЛАЙН всего за 499р. 349 руб. (супер цена). Внимание количество ограничено!!!

iTunes

1+1

iTunes

мы

iTunes

1

1 сезон

Чернобыль

1 сезон

Ральф против интернета

Лицензия

ПШазам

8 сезон

Игра престолов

Лицензия

30
pack

ВАЖНО

!!Акция!!

Alien_RageХит недели

RePack

Resident Evil 21

ИГРА 18+

pack

RePack

Metro:Exodus

!!Акция!!

Alien_Rage

RePack

fifa19

RePack

Assassins Creed: Odyssey

RePack

NEED FOR SPEED™ PAYBACK

3 сезон

9 сезон

Бесстыжие 9 сезон

Все сериалы

все сериалы на PB.wtf

RePack

FAR CRY 5
Ребята, катастрофически не хватает 2730р. для оплаты серверов за ИЮНЬ (всвязи с блокировками трафик упал в 3 раза), 1-2р., выручайте.
  

Преследование по пятам / Hot Pursuit (Стивен Лисбергер / Steven Lisberger) [1987, комедия, приключения, WEB-DL 1080p от KORSAR] [AVO (П. Санаев)] pb.wtf

Преследование по пятам через торрент pb.wtf

Размер: 9.72 GB | Добавлен: 2 д. 15 ч. назад | Торрент скачан:2 раза
Скачать  

14-07-2019 10:19 Преследование по пятам Скачать торрент  

Преследование по пятам / Hot Pursuit

Страна: США, Мексика
Студия: Interaccess Film Distribution, RKO Pictures
Жанр: комедия, приключения
Год выпуска: 1987
Продолжительность: 01:32:28

Перевод: Авторский (одноголосый закадровый) П. Санаев
Субтитры: английские
Оригинальная аудиодорожка: английский

Режиссер: Стивен Лисбергер / Steven Lisberger

В ролях: Джон Кьюсак, Роберт Лоджа, Джерри Стиллер, Венди Газелль, Монте Маркэм, Шелли Фабарес, Бен Стиллер, Да-ве Чодан, Кит Дэвид, Пол Бейтс

Описание: Дэн опаздывает на самолет, на котором должен был отправиться в романтическое путешествие со своей очаровательной подругой Лори. Но неунывающий, всегда готовый к самым пакостным превратностям судьбы Дэн бросается вдогонку. Правда, цепь неудач продолжается и в течение ближайших дней ему предстоит заблудиться в карибских джунглях, поиметь близкие контакты необузданного вида с чувственной островитянкой, пережить кораблекрушение и оказаться в разгар тропического урагана за бортом на милость загадочного незнакомца, только что сбежавшего из тюрьмы, сорвать попытку похищения с целью выкупа, а заодно и сразиться с бандой негодяев, задумавших убить Лори и ее семью. Да, вот это каникулы!

Релиз от:


Тип релиза: WEB-DL 1080p
Контейнер: MKV

Видео: MPEG-4 AVC, 14,3 Мбит/сек, 1920x1080, 23,976 кадра/сек
Аудио #1: AC3, 2 ch, 192 Кбит/сек | Русский, авторский (одноголосый закадровый) Павел Санаев
Аудио #2: EAC3, 2 ch, 224 Кбит/сек | Английский, оригинал

Сборка:
Общее
Уникальный идентификатор : 234413383544463459340842835258877587083 (0xB05A601F05591A1AACD3EAFF3A42AE8B)
Полное имя : Преследование.по.пятам.1987.WEB-DL.1080p.mkv
Формат : Matroska
Версия формата : Version 2
Размер файла : 9,72 Гбайт
Продолжительность : 1 ч. 32 м.
Режим общего битрейта : Переменный
Общий поток : 15,1 Мбит/сек
Дата кодирования : UTC 2018-04-07 23:18:40
Программа кодирования : mkvmerge v5.8.0 ('No Sleep / Pillow') built on Sep 2 2012 15:37:04
Библиотека кодирования : libebml v1.2.3 + libmatroska v1.3.0

Видео
Идентификатор : 1
Формат : AVC
Формат/Информация : Advanced Video Codec
Профиль формата : High@L4
Настройки формата : CABAC / 4 Ref Frames
Параметр CABAC формата : Да
Параметр RefFrames формата : 4 кадра
Идентификатор кодека : V_MPEG4/ISO/AVC
Продолжительность : 1 ч. 32 м.
Вид битрейта : Переменный
Битрейт : 14,3 Мбит/сек
Максимальный битрейт : 15,0 Мбит/сек
Ширина : 1920 пикселей
Высота : 1080 пикселей
Соотношение сторон : 16:9
Режим частоты кадров : Постоянный
Частота кадров : 23,976 (24000/1001) кадра/сек
Цветовое пространство : YUV
Субдискретизация насыщенности : 4:2:0
Битовая глубина : 8 бит
Тип развёртки : Прогрессивная
Бит/(Пиксели*Кадры) : 0.288
Размер потока : 9,26 Гбайт (95%)
Библиотека кодирования : x264 core 148 r2623 d5b2374
Настройки программы : cabac=1 / ref=4 / deblock=1:-1:-1 / analyse=0x3:0x133 / me=umh / subme=9 / psy=1 / psy_rd=1.00:0.15 / mixed_ref=1 / me_range=24 / chroma_me=1 / trellis=2 / 8x8dct=1 / cqm=0 / deadzone=21,11 / fast_pskip=1 / chroma_qp_offset=-3 / threads=34 / lookahead_threads=5 / sliced_threads=0 / nr=150 / decimate=1 / interlaced=0 / bluray_compat=0 / constrained_intra=0 / bframes=8 / b_pyramid=2 / b_adapt=2 / b_bias=0 / direct=3 / weightb=1 / open_gop=0 / weightp=2 / keyint=120 / keyint_min=61 / scenecut=0 / intra_refresh=0 / rc_lookahead=120 / rc=crf / mbtree=1 / crf=18.0 / qcomp=0.60 / qpmin=0 / qpmax=69 / qpstep=4 / vbv_maxrate=15000 / vbv_bufsize=31250 / crf_max=0.0 / nal_hrd=vbr / filler=0 / ip_ratio=1.40 / aq=3:1.00
Язык : English
Default : Да
Forced : Нет
Цветовой диапазон : Limited
Основные цвета : BT.709
Характеристики трансфера : BT.709
Коэффициенты матрицы : BT.709

Аудио #1
Идентификатор : 2
Формат : AC-3
Формат/Информация : Audio Coding 3
Идентификатор кодека : A_AC3
Продолжительность : 1 ч. 32 м.
Вид битрейта : Постоянный
Битрейт : 192 Кбит/сек
Каналы : 2 канала
Расположение каналов : Front: L R
Частота : 48,0 КГц
Частота кадров : 31,250 кадров/сек (1536 SPF)
Битовая глубина : 16 бит
Метод сжатия : С потерями
Размер потока : 127 Мбайт (1%)
Заголовок : AVO | П. Санаев
Язык : Russian
По умолчанию : Да
Принудительно : Нет

Аудио #2
Идентификатор : 3
Формат : E-AC-3
Формат/Информация : Enhanced Audio Coding 3
Идентификатор кодека : A_EAC3
Продолжительность : 1 ч. 32 м.
Вид битрейта : Постоянный
Битрейт : 224 Кбит/сек
Каналы : 2 канала
Расположение каналов : Front: L R
Частота : 48,0 КГц
Частота кадров : 187,500 кадров/сек (256 SPF)
Метод сжатия : С потерями
Размер потока : 148 Мбайт (1%)
Заголовок : Original
Язык : English
По умолчанию : Нет
Принудительно : Нет

Текст #1
Идентификатор : 4
Формат : UTF-8
Идентификатор кодека : S_TEXT/UTF8
Идентификатор кодека/Информация : UTF-8 Plain Text
Язык : English
По умолчанию : Нет
Принудительно : Нет

Текст #2
Идентификатор : 5
Формат : UTF-8
Идентификатор кодека : S_TEXT/UTF8
Идентификатор кодека/Информация : UTF-8 Plain Text
Заголовок : SDH
Язык : English
По умолчанию : Нет
Принудительно : Нет

Меню
00:00:00.000 : en:Trying to Study
00:08:04.000 : en:Good at Chemistry
00:16:34.000 : en:The Wrong Ride
00:25:41.000 : en:Dan's Friends
00:32:37.000 : en:Crystal Slipper
00:38:03.000 : en:Guns And Knives
00:46:37.000 : en:Sailing Through A Storm
00:54:00.000 : en:Dan Jumps Ship
00:59:44.000 : en:Thrown In Jail
01:06:01.000 : en:Democracy
01:11:36.000 : en:Danger For The Cronenbergs
01:15:36.000 : en:Discovering Smugglers
01:20:46.000 : en:The Boyfriend Saves The Day
01:26:56.000 : en:Reward
pb.wtf



Скачать Преследование по пятам через торрент https://a.radikal.ru/a09/1907/9a/d95bfce9e3db.png Скачать фильм Преследование по пятам через торрент бесплантно в хорошем качестве Описание: Дэн опаздывает на самолет, на котором должен был отправиться в романтическое путешествие со своей очаровательной подругой Лори. ... 5 10 1
Торрент: Зарегистрирован [2019-07-14 10:19] · скачан: 2 раз
Статус: √ проверено
Размер: 9.72 GB
Как cкачать? Как скачать Преследование по пятам через торрент | qTorrent

% Раздел Тема Автор DL S | L
Фильмы с авторской озвучкой [ 1.45 GB ] Преследование по пятам / Hot Pursuit [1987 WEB-DLRip] AVO koenig Скачать
1 | 0


>> Регистрируемся здесь <<






Отзывы и комментарии о схеме читаем и пишем здесь: ---> Отзывы и комментарии о схеме

Новые благодарочки в телеграм довольных пользователей:
скриншот   скриншот   скриншот   скриншот   скриншот
    Дорогой пользователь! Огромная просьба, поблагодарите релизера, оцените раздачу и оставьте свои комментарий, если Вы скачали Преследование по пятам через торрент бесплатно! Внесите свою лепту в развитие PiratBit!
    Комментировать посты могут только пользователи прошедшие не сложную регистрацию
    Показать сообщения:    

    Преследование по пятам через торрент
    Скачать бесплатно Преследование по пятам
    Преследование по пятам скачать торрент
    Преследование по пятам смотреть онлайн
    Cкачать фильм Преследование по пятам бесплатно
    Преследование по пятам скачать торрент в хорошем качестве
    Преследование по пятам смотреть онлайн бесплатно в хорошем качестве


    Вы не можете начинать темы
    Вы не можете отвечать на сообщения
    Вы не можете редактировать свои сообщения
    Вы не можете удалять свои сообщения
    Вы не можете голосовать в опросах
    Вы не можете прикреплять файлы к сообщениям
    Вы можете скачивать файлы