новый адрес
Ссылка на приватное зеркало всего за 1$. Внимание количество ограничено!!!

iTunes

1+1

iTunes

мы

WEB-DL

1

iTunes

Чернобыль

iTunes

Ральф против интернета

Лицензия

ПШазам

Лицензия

Оно 2

Лицензия

30
pack

Вам бонус

ВАЖНО

!!Акция!!

Alien_RageХит недели

RePack

Resident Evil 21

ИГРА 18+

pack

RePack

jed

!!Акция!!

Alien_Rage

RePack

fifa19

RePack

Assassins Creed: Odyssey

RePack

NEED FOR SPEED™ PAYBACK

3 сезон

9 сезон

Бесстыжие 9 сезон

Все сериалы

все сериалы на PB.wtf

RePack

FAR CRY 5
Ребята, катастрофически не хватает 1900р. для оплаты серверов за Октябрь (всвязи с блокировками трафик упал в 3 раза), 1-2р., выручайте.
  

Пятнадцать минут войны / 15 Minutes of War / L'Intervention (Фред Гривуа) [2019, Боевик, драма, военный, история, BDRip-AVC] MVO [iTunes] pb.wtf

Пятнадцать минут войны через торрент pb.wtf

Раздают: 6 [ 114 KB/s ]
Размер: 1.5 GB | Добавлен: 4 мес. 25 д. назад | Торрент скачан:240 раз
Скачать  

14-07-2019 11:44 Пятнадцать минут войны Скачать торрент  

Пятнадцать минут войны / 15 Minutes of War / L'Intervention
Год выпуска: 2019
Страна: Франция, Бельгия
Жанр: Боевик, драма, военный, история
Продолжительность: 01:38:24
Перевод: Профессиональный многоголосый | iTunes
Субтитры: Русские (полные) - спасибо Энигме!

Режиссер: Фред Гривуа

rating

В ролях: Альбан Ленуар, Ольга Куриленко, Себастьян Лаланн, Давид Муржиа, Микаэль Абитбуль, Гийом Лаббе, Бен Кура, Венсан Перес, Жозиан Баласко, Кевин Лэйн

Описание: 1976 год. Сомалийские мятежники угоняют школьный автобус, пассажиры которого — 21 французский ученик и американский учитель, и увозят его к нейтральной зоне на границе между французской колонией и Сомали. Французский капитан Андре Жерваль получает задание возглавить команду снайперов для оперативного спасения заложников. Когда переговоры терпят неудачу, Жерваль и его ребята становятся единственными, кто может спасти их жизнь.

Качество: BDRip-AVC
Формат: MKV

Видео: 1024x430 (2.40:1), 24,000 fps, x264 ~1 807 kbps avg, 0.171 bit/pixel
Аудио: 48 kHz, AC3 Dolby Digital, 3/2 (L,C,R,l,r) + LFE ch, ~384.00 kbps avg | RUS (iTunes)
скриншот  скриншот  скриншот  скриншот  скриншот  

Общее
Уникальный идентификатор : 217664433145799077896196835322906875857 (0xA3C0A51C40C59F316ED2A1DBE83D17D1)
Полное имя : F:OlLanDGroupL.Intervention.2019.BDRip(AVC).OlLanDGroup.mkv
Формат : Matroska
Версия формата : Version 4 / Version 2
Размер файла : 1,50 Гбайт
Продолжительность : 1 ч. 38 м.
Общий поток : 2189 Кбит/сек
Название фильма : Пятнадцать минут войны 2019 #TorpedoUK#
Дата кодирования : UTC 2019-07-14 01:12:44
Программа кодирования : mkvmerge v29.0.0 ('Like It Or Not') 64-bit
Библиотека кодирования : libebml v1.3.6 + libmatroska v1.4.9

Видео
Идентификатор : 1
Формат : AVC
Формат/Информация : Advanced Video Codec
Профиль формата : High@L4.1
Параметр CABAC формата : Да
Параметр ReFrames формата : 10 кадров
Идентификатор кодека : V_MPEG4/ISO/AVC
Продолжительность : 1 ч. 38 м.
Битрейт : 1807 Кбит/сек
Ширина : 1024 пикселя
Высота : 430 пикселей
Соотношение сторон : 2,40:1
Режим частоты кадров : Постоянный
Частота кадров : 24,000 кадра/сек
Цветовое пространство : YUV
Субдискретизация насыщенности : 4:2:0
Битовая глубина : 8 бит
Тип развёртки : Прогрессивная
Бит/(Пиксели*Кадры) : 0.171
Размер потока : 1,24 Гбайт (82%)
Библиотека кодирования : x264 core 146 r2538 121396c
Настройки программы : cabac=1 / ref=10 / deblock=1:-2:-3 / analyse=0x3:0x113 / me=umh / subme=11 / psy=1 / psy_rd=0.94:0.08 / mixed_ref=1 / me_range=48 / chroma_me=1 / trellis=2 / 8x8dct=1 / cqm=0 / deadzone=21,11 / fast_pskip=1 / chroma_qp_offset=-3 / threads=6 / lookahead_threads=1 / sliced_threads=0 / nr=0 / decimate=1 / interlaced=0 / bluray_compat=0 / constrained_intra=0 / bframes=11 / b_pyramid=2 / b_adapt=2 / b_bias=0 / direct=3 / weightb=1 / open_gop=0 / weightp=2 / keyint=240 / keyint_min=23 / scenecut=40 / intra_refresh=0 / rc_lookahead=40 / rc=2pass / mbtree=0 / bitrate=1807 / ratetol=1.0 / qcomp=0.60 / qpmin=0 / qpmax=69 / qpstep=4 / cplxblur=20.0 / qblur=0.5 / vbv_maxrate=50000 / vbv_bufsize=62500 / nal_hrd=none / filler=0 / ip_ratio=1.40 / pb_ratio=1.30 / aq=1:1.00
Язык : English
Default : Да
Forced : Нет

Аудио
Идентификатор : 2
Формат : AC-3
Формат/Информация : Audio Coding 3
Расширение режима : CM (complete main)
Параметр Endianness формата : Big
Идентификатор кодека : A_AC3
Продолжительность : 1 ч. 38 м.
Вид битрейта : Постоянный
Битрейт : 384 Кбит/сек
Каналы : 6 каналов
Расположение каналов : Front: L C R, Side: L R, LFE
Частота : 48,0 КГц
Частота кадров : 31,250 кадров/сек (1536 spf)
Битовая глубина : 16 бит
Метод сжатия : С потерями
Размер потока : 270 Мбайт (18%)
Заголовок : MVO [iTunes]
Язык : Russian
Default : Да
Forced : Нет

Текст
Идентификатор : 3
Формат : UTF-8
Идентификатор кодека : S_TEXT/UTF8
Идентификатор кодека/Информация : UTF-8 Plain Text
Продолжительность : 1 ч. 33 м.
Битрейт : 61 бит/сек
Count of elements : 920
Размер потока : 42,5 Кбайт (0%)
Заголовок : Full (Enigma)
Язык : Russian
Default : Нет
Forced : Нет

Меню
00:00:00.000 : fr:(01)00:00:00:000
00:09:35.958 : fr:(02)00:09:35:958
00:15:56.875 : fr:(03)00:15:56:875
00:23:28.833 : fr:(04)00:23:28:833
00:33:02.916 : fr:(05)00:33:02:916
00:39:47.833 : fr:(06)00:39:47:833
00:48:04.000 : fr:(07)00:48:04:000
00:55:23.958 : fr:(08)00:55:23:958
01:04:22.416 : fr:(09)01:04:22:416
01:12:05.916 : fr:(10)01:12:05:916
01:19:38.791 : fr:(11)01:19:38:791
01:28:59.250 : fr:(12)01:28:59:250

pb.wtf



Скачать Пятнадцать минут войны через торрент https://i106.fastpic.ru/big/2019/0714/ab/c01c3be0b3f26979bdf2ae493955a2ab.jpeg Скачать фильм Пятнадцать минут войны через торрент бесплантно в хорошем качестве Описание: 1976 год. Сомалийские мятежники угоняют школьный автобус, пассажиры которого — 21 французский ученик и американский учитель, и ... 10 10 4
Торрент: Зарегистрирован [2019-07-14 11:44] · скачан: 240 раз
Статус: √ проверено
Размер: 1.5 GB
Как cкачать? Как скачать Пятнадцать минут войны через торрент | qTorrent

28-11-2019 20:33  

Отключить всю рекламу на сайте

    Дорогой пользователь! Огромная просьба, поблагодарите релизера, оцените раздачу и оставьте свои комментарий, если Вы скачали Пятнадцать минут войны через торрент бесплатно! Внесите свою лепту в развитие PiratBit!
    Комментировать посты могут только пользователи прошедшие не сложную регистрацию
    Показать сообщения:    

    Пятнадцать минут войны через торрент
    Скачать бесплатно Пятнадцать минут войны
    Пятнадцать минут войны скачать торрент
    Пятнадцать минут войны смотреть онлайн
    Cкачать фильм Пятнадцать минут войны бесплатно
    Пятнадцать минут войны скачать торрент в хорошем качестве
    Пятнадцать минут войны смотреть онлайн бесплатно в хорошем качестве


    Вы не можете начинать темы
    Вы не можете отвечать на сообщения
    Вы не можете редактировать свои сообщения
    Вы не можете удалять свои сообщения
    Вы не можете голосовать в опросах
    Вы не можете прикреплять файлы к сообщениям
    Вы можете скачивать файлы