Ссылка на приватное зеркало всего за 1$. Внимание количество ограничено!!!


iTunes

1+1

iTunes

мы

WEB-DL

1

iTunes

Чернобыль

iTunes

Ральф против интернета

Лицензия

ПШазам

Лицензия

Оно 2

WEB-DL

30
pack

Вам бонус

ВАЖНО

!!Акция!!

Alien_RageХит недели

RePack

Resident Evil 21

ИГРА 18+

pack

RePack

jed

!!Акция!!

Alien_Rage

RePack

fifa19

RePack

Assassins Creed: Odyssey

RePack

NEED FOR SPEED™ PAYBACK

4 сезон

9 сезон

Бесстыжие 9 сезон

Все сериалы

все сериалы на PB.wtf

RePack

FAR CRY 5
Ребята, катастрофически не хватает 1900р. для оплаты серверов за Октябрь (всвязи с блокировками трафик упал в 3 раза), 1-2р., выручайте.
  

Клют / Klute (Алан Джей Пакула) [1971 г., Детектив, триллер, драма, WEB-DLRip 720p от KORSAR][DUB + MVO + AVO] pb.wtf

Клют через торрент pb.wtf

Размер: 3.12 GB | Добавлен: 5 мес. 1 д. назад | Торрент скачан:1 раз
Скачать  

14-07-2019 13:56 Клют Скачать торрент  

Название: Клют
Оригинальное название: Klute
Год выпуска: 1971
Жанр: Детектив, триллер, драма

Режиссер: Алан Джей Пакула
В ролях: Джейн Фонда, Дональд Сазерленд, Рой Шайдер, Сильвестр Сталлоне, Джейн Уайт, Энтони Холланд, Ширли Столер, Вивиан Натан, Рита Гэм, Натан Джордж, Дороти Тристан, Чарльз Киоффи, Розалинд Кэш, Джин Степлтон, Кэнди Дарлинг, Кевин Добсон, Вероника Хэмел, Ричард Джордан, Гарри Римс, Джо Силвер, Ли Уоллес, Мэри Луиза Уилсон

О фильме: Лучший друг детектива Джона Клюта исчез. Единственная зацепка, которая может хоть как-то помочь в расследовании, это связь исчезнувшего с девушкой по вызову, Бри. Клюту удается заручиться ее поддержкой, но она берется за это дело только из любви к риску. И надежды Бри на неприятности не напрасны: вскоре и ее жизнь оказывается в опасности...

rating

Продолжительность: 01:53:57
Выпущено: СЩА, Gus Productions, Warner Bros. Pictures Co.
Перевод: Дублированный, профессиональный многоголосый, авторский

Качество: WEB-DLRip 720p
Формат: MKV
Видео: MPEG-4 AVC, 3148 Кбит/сек, 1280x528, 23.976 кадра/сек
Аудио #1: AC3, 2 ch, 192 Кбит/сек | Русский, профессиональный (полное дублирование) "Варус - Видео"
Аудио #2: AC3, 2 ch, 192 Кбит/сек | Русский, профессиональный (многоголосый закадровый) R5
Аудио #3: AC3, 2 ch, 192 Кбит/сек | Русский, авторский (одноголосый закадровый) Валерий Казаков
Аудио #4: AC3, 2 ch, 192 Кбит/сек | Английский, оригинал
Субтитры: Русские, английские, французские, немецкие
Навигация по главам: Есть

Релиз от:
Общее
Уникальный идентификатор : 198938678787739418571039925714002405905 (0x95AA3223B6244E2996A998A408D06A11)
Полное имя : Клют.1971.WEB-DLRip.720p.KORSAR.mkv
Формат : Matroska
Версия формата : Version 2
Размер файла : 3,12 Гбайт
Продолжительность : 1 ч. 53 м.
Общий поток : 3919 Кбит/сек
Дата кодирования : UTC 2018-06-14 17:24:50
Программа кодирования : mkvmerge v5.8.0 ('No Sleep / Pillow') built on Sep 2 2012 15:37:04
Библиотека кодирования : libebml v1.2.3 + libmatroska v1.3.0

Видео
Идентификатор : 1
Формат : AVC
Формат/Информация : Advanced Video Codec
Профиль формата : High@L4.1
Настройки формата : CABAC / 12 Ref Frames
Параметр CABAC формата : Да
Параметр RefFrames формата : 12 кадров
Идентификатор кодека : V_MPEG4/ISO/AVC
Продолжительность : 1 ч. 53 м.
Битрейт : 3148 Кбит/сек
Ширина : 1280 пикселей
Высота : 528 пикселей
Соотношение сторон : 2,40:1
Режим частоты кадров : Постоянный
Частота кадров : 23,976 (24000/1001) кадра/сек
Цветовое пространство : YUV
Субдискретизация насыщенности : 4:2:0
Битовая глубина : 8 бит
Тип развёртки : Прогрессивная
Бит/(Пиксели*Кадры) : 0.194
Размер потока : 2,45 Гбайт (78%)
Заголовок : RIP | MZMA
Библиотека кодирования : x264 core 148 r2638 7599210
Настройки программы : cabac=1 / ref=12 / deblock=1:-3:-3 / analyse=0x3:0x113 / me=umh / subme=11 / psy=1 / psy_rd=1.00:0.00 / mixed_ref=1 / me_range=64 / chroma_me=1 / trellis=2 / 8x8dct=1 / cqm=0 / deadzone=21,11 / fast_pskip=0 / chroma_qp_offset=-2 / threads=6 / lookahead_threads=1 / sliced_threads=0 / nr=0 / decimate=0 / interlaced=0 / bluray_compat=0 / constrained_intra=0 / bframes=16 / b_pyramid=2 / b_adapt=2 / b_bias=0 / direct=3 / weightb=1 / open_gop=0 / weightp=2 / keyint=250 / keyint_min=23 / scenecut=40 / intra_refresh=0 / rc_lookahead=60 / rc=2pass / mbtree=1 / bitrate=3148 / ratetol=1.0 / qcomp=0.60 / qpmin=0 / qpmax=69 / qpstep=4 / cplxblur=20.0 / qblur=0.5 / vbv_maxrate=50000 / vbv_bufsize=62500 / nal_hrd=none / filler=0 / ip_ratio=1.40 / aq=3:0.90
Язык : English
Default : Да
Forced : Нет
Цветовой диапазон : Limited
Основные цвета : BT.709
Характеристики трансфера : BT.709
Коэффициенты матрицы : BT.709

Аудио #1
Идентификатор : 2
Формат : AC-3
Формат/Информация : Audio Coding 3
Идентификатор кодека : A_AC3
Продолжительность : 1 ч. 53 м.
Вид битрейта : Постоянный
Битрейт : 192 Кбит/сек
Каналы : 2 канала
Расположение каналов : Front: L R
Частота : 48,0 КГц
Частота кадров : 31,250 кадров/сек (1536 SPF)
Битовая глубина : 16 бит
Метод сжатия : С потерями
Размер потока : 156 Мбайт (5%)
Заголовок : DUB | Варус-Видео
Язык : Russian
По умолчанию : Да
Принудительно : Нет

Аудио #2
Идентификатор : 3
Формат : AC-3
Формат/Информация : Audio Coding 3
Идентификатор кодека : A_AC3
Продолжительность : 1 ч. 53 м.
Вид битрейта : Постоянный
Битрейт : 192 Кбит/сек
Каналы : 2 канала
Расположение каналов : Front: L R
Частота : 48,0 КГц
Частота кадров : 31,250 кадров/сек (1536 SPF)
Битовая глубина : 16 бит
Метод сжатия : С потерями
Размер потока : 156 Мбайт (5%)
Заголовок : MVO | R5
Язык : Russian
По умолчанию : Нет
Принудительно : Нет

Аудио #3
Идентификатор : 4
Формат : AC-3
Формат/Информация : Audio Coding 3
Идентификатор кодека : A_AC3
Продолжительность : 1 ч. 53 м.
Вид битрейта : Постоянный
Битрейт : 192 Кбит/сек
Каналы : 2 канала
Расположение каналов : Front: L R
Частота : 48,0 КГц
Частота кадров : 31,250 кадров/сек (1536 SPF)
Битовая глубина : 16 бит
Метод сжатия : С потерями
Размер потока : 156 Мбайт (5%)
Заголовок : AVO | В. Казаков
Язык : Russian
По умолчанию : Нет
Принудительно : Нет

Аудио #4
Идентификатор : 5
Формат : AC-3
Формат/Информация : Audio Coding 3
Идентификатор кодека : A_AC3
Продолжительность : 1 ч. 53 м.
Вид битрейта : Постоянный
Битрейт : 192 Кбит/сек
Каналы : 2 канала
Расположение каналов : Front: L R
Частота : 48,0 КГц
Частота кадров : 31,250 кадров/сек (1536 SPF)
Битовая глубина : 16 бит
Метод сжатия : С потерями
Размер потока : 156 Мбайт (5%)
Заголовок : Original
Язык : English
По умолчанию : Нет
Принудительно : Нет

Текст #1
Идентификатор : 6
Формат : UTF-8
Идентификатор кодека : S_TEXT/UTF8
Идентификатор кодека/Информация : UTF-8 Plain Text
Язык : Russian
По умолчанию : Нет
Принудительно : Нет

Текст #2
Идентификатор : 7
Формат : UTF-8
Идентификатор кодека : S_TEXT/UTF8
Идентификатор кодека/Информация : UTF-8 Plain Text
Заголовок : SDH
Язык : English
По умолчанию : Нет
Принудительно : Нет

Текст #3
Идентификатор : 8
Формат : UTF-8
Идентификатор кодека : S_TEXT/UTF8
Идентификатор кодека/Информация : UTF-8 Plain Text
Язык : French
По умолчанию : Нет
Принудительно : Нет

Текст #4
Идентификатор : 9
Формат : UTF-8
Идентификатор кодека : S_TEXT/UTF8
Идентификатор кодека/Информация : UTF-8 Plain Text
Язык : German
По умолчанию : Нет
Принудительно : Нет

Меню
00:00:00.000 : en:Double Life
00:03:37.461 : en:Her Turn-ons (Credits)
00:05:38.582 : en:Overlooked
00:07:07.972 : en:Bree On The Job
00:13:20.210 : en:Bree Off The Job
00:15:53.997 : en:Unwanted Calls
00:17:20.951 : en:Her New Shadow
00:20:10.787 : en:Bree The Actress
00:21:25.503 : en:I Felt So Beautiful
00:24:03.527 : en:What's Your Bag
00:29:01.125 : en:Stalking A Stalker
00:37:38.175 : en:Strange Things In Mind
00:43:39.812 : en:Ligourin's Girls
00:46:39.792 : en:Pathetic
00:47:57.036 : en:Trailer Of Arlyn Page
00:53:21.098 : en:I Just Don't Want To Be Alone
00:56:37.127 : en:Lost Virtue
00:59:00.308 : en:Arlyn: Strung Out
01:02:55.915 : en:Party Girl
01:05:51.393 : en:Reporting To Cable
01:07:32.628 : en:Klute's Vigil
01:10:22.998 : en:Manipulator Of Men
01:15:12.254 : en:Out Of The River
01:18:46.968 : en:Conflicting Emotions
01:21:01.013 : en:Breaking And Entering
01:26:57.369 : en:Man Behind The Letters
01:30:52.343 : en:Losing His Inhibitions
01:33:21.458 : en:Nobody's There
01:35:50.807 : en:Missing Mr. Goldfarb
01:37:37.414 : en:Not Alone
01:41:14.001 : en:Stock In Trade
01:43:43.484 : en:What Happened To Arlyn
01:50:35.095 : en:Taking A Fall
01:51:22.309 : en:Leaving Town
01:52:52.866 : en:Cast List
pb.wtf



Скачать Клют через торрент http://a.radikal.ru/a12/1806/4c/64a1dafb56d7.png Скачать фильм Клют через торрент бесплантно в хорошем качестве О фильме: Лучший друг детектива Джона Клюта исчез. Единственная зацепка, которая может хоть как-то помочь в расследовании, это связь ... 9.5 10 2
Info! Золотая раздача, скачанное не засчитывается.
Торрент: Зарегистрирован [2019-07-14 13:56] · скачан: 1 раз
Статус: √ проверено
Размер: 3.12 GB
Как cкачать? Как скачать Клют через торрент | qTorrent

28-11-2019 20:33  

Отключить всю рекламу на сайте

    Дорогой пользователь! Огромная просьба, поблагодарите релизера, оцените раздачу и оставьте свои комментарий, если Вы скачали Клют через торрент бесплатно! Внесите свою лепту в развитие PiratBit!
    Комментировать посты могут только пользователи прошедшие не сложную регистрацию
    Показать сообщения:    

    Клют через торрент
    Скачать бесплатно Клют
    Клют скачать торрент
    Клют смотреть онлайн
    Cкачать фильм Клют бесплатно
    Клют скачать торрент в хорошем качестве
    Клют смотреть онлайн бесплатно в хорошем качестве


    Вы не можете начинать темы
    Вы не можете отвечать на сообщения
    Вы не можете редактировать свои сообщения
    Вы не можете удалять свои сообщения
    Вы не можете голосовать в опросах
    Вы не можете прикреплять файлы к сообщениям
    Вы можете скачивать файлы