Ссылка на приватное зеркало всего за 1$. Внимание количество ограничено!!!

iTunes

1+1

iTunes

мы

WEB-DL

1

iTunes

Чернобыль

iTunes

Ральф против интернета

Лицензия

ПШазам

Лицензия

Оно 2

Лицензия

30
pack

Вам бонус

ВАЖНО

!!Акция!!

Alien_RageХит недели

RePack

Resident Evil 21

ИГРА 18+

pack

RePack

jed

!!Акция!!

Alien_Rage

RePack

fifa19

RePack

Assassins Creed: Odyssey

RePack

NEED FOR SPEED™ PAYBACK

3 сезон

9 сезон

Бесстыжие 9 сезон

Все сериалы

все сериалы на PB.wtf

RePack

FAR CRY 5
Ребята, катастрофически не хватает 1900р. для оплаты серверов за Октябрь (всвязи с блокировками трафик упал в 3 раза), 1-2р., выручайте.
  

Королева сердец / Dronningen (Май эль-Туки) [2019, Триллер, WEB-DLRip] MVO [iTunes] pb.wtf

Королева сердец через торрент pb.wtf

Раздают: 1 [ 0 KB/s ]
Размер: 746 MB | Добавлен: 3 мес. 14 д. назад | Торрент скачан:78 раз
Скачать  

14-07-2019 15:00 Королева сердец Скачать торрент  

Королева сердец / Dronningen
Год выпуска: 2019
Страна: Дания, Швеция
Жанр: Триллер
Продолжительность: 02:06:05
Перевод: Профессиональный (многоголосый) | iTunes
Субтитры: отсутствуют

Режиссер: Май эль-Туки

rating

В ролях: Трине Дюрхольм, Густав Линд, Магнус Креппер, Лив Эсмор Даннеманн, Силья Эсмор Даннеманн, Стине Гюльденкерне, Пребен Кристенсен, Фредерикке Даль Хансен, Элла Солгор, Карла Филип Родер

Описание: Анна - успешный юрист, идеальная жена, заботливая мать. Однажды в дом приезжает Густав - сын мужа от первого брака. Между Анной и Густавом вспыхивает запретная страсть. Искушение становится наваждением. Ничто уже не будет прежним.

Качество: WEB-DLRip
Формат: AVI

Видео: 688x288 (2.39:1), 24.000 fps, XviD build 50 ~689 kbps avg, 0.14 bit/pixel
Аудио: 48 kHz, MPEG Layer 3, 2 ch, ~128.00 kbps avg
скриншот  скриншот  скриншот  скриншот  

Общее
Полное имя: C:\Dronningen.2019.WEB-DLRip.740.mb.avi
Формат: AVI
Формат/Информация: Audio Video Interleave
Размер файла: 746 Мбайт
Продолжительность: 2 ч. 6 м.
Общий поток: 827 Кбит/сек
Программа кодирования: VirtualDubMod 1.5.10.3 | (build 2550/release)
Библиотека кодирования: VirtualDubMod build 2550/release

Видео
Идентификатор: 0
Формат: MPEG-4 Visual
Профиль формата: Advanced Simple@L5
Параметр BVOP формата: 1
Параметр QPel формата: Нет
Параметр GMC формата: Без точки перехода
Параметр матрицы формата: Default (H.263)
Идентификатор кодека: XVID
Идентификатор кодека/Подсказка: XviD
Продолжительность: 2 ч. 6 м.
Битрейт: 690 Кбит/сек
Ширина: 688 пикселей
Высота: 288 пикселей
Соотношение сторон: 2,40:1
Частота кадров: 24,000 кадра/сек
Цветовое пространство: YUV
Субдискретизация насыщенности: 4:2:0
Битовая глубина: 8 бит
Тип развёртки: Прогрессивная
Метод сжатия: С потерями
Бит/(Пиксели*Кадры): 0.145
Размер потока: 622 Мбайт (83%)
Библиотека кодирования: XviD 1.2.1 (UTC 2008-12-04)

Аудио
Идентификатор: 1
Формат: MPEG Audio
Версия формата: Version 1
Профиль формата: Layer 3
Идентификатор кодека: 55
Идентификатор кодека/Подсказка: MP3
Продолжительность: 2 ч. 6 м.
Вид битрейта: Постоянный
Битрейт: 128 Кбит/сек
Каналы: 2 канала
Частота: 48,0 КГц
Метод сжатия: С потерями
Размер потока: 115 Мбайт (15%)
Выравнивание: Соединение по промежуткам
Продолжительность промежутка: 42 мс. (1,00 видеокадр)
Время предзагрузки промежутка: 504 мс.
Библиотека кодирования: LAME3.99r
Настройки программы: -m s -V 4 -q 2 -lowpass 17 -b 128
pb.wtf



Скачать Королева сердец через торрент https://a.radikal.ru/a06/1908/d0/e5493569a65e.jpg Скачать фильм Королева сердец через торрент бесплантно в хорошем качестве Описание: Анна - успешный юрист, идеальная жена, заботливая мать. Однажды в дом приезжает Густав - сын мужа от первого брака. Между Анной и ... 10 10 7
Торрент: Зарегистрирован [2019-08-30 06:32] · скачан: 78 раз
Статус: √ проверено
Размер: 746 MB
Как cкачать? Как скачать Королева сердец через торрент | qTorrent

% Раздел Тема Автор DL S | L
Фильмы 2019 [DVDrip, WEB-DLRip, HDrip] (DUB, MVO) [ 2.09 GB ] Королева сердец / Dronningen [2019 WEB-DLRip-AVC] MVO - ExKinoRay Enigma2010 Скачать
20 | 1
Фильмы (WEB-DL 720p, 1080p) [ 4.36 GB ] Королева сердец / Dronningen [2019 WEB-DL 1080p] MVO bober100 Скачать
1 | 0
Фильмы (WEB-DL 720p, 1080p) [ 3.91 GB ] Королева сердец / Dronningen [2019 WEB-DL 720p] MVO bober100 Скачать
3 | 0
Фильмы 2019 [DVDrip, WEB-DLRip, HDrip] (DUB, MVO) [ 1.46 GB ] Королева сердец / Dronningen [2019 WEB-DLRip] MVO bober100 Скачать
1 | 0

28-11-2019 20:33  

Отключить всю рекламу на сайте

    Дорогой пользователь! Огромная просьба, поблагодарите релизера, оцените раздачу и оставьте свои комментарий, если Вы скачали Королева сердец через торрент бесплатно! Внесите свою лепту в развитие PiratBit!
    Комментировать посты могут только пользователи прошедшие не сложную регистрацию
    Показать сообщения:    

    Королева сердец через торрент
    Скачать бесплатно Королева сердец
    Королева сердец скачать торрент
    Королева сердец смотреть онлайн
    Cкачать фильм Королева сердец бесплатно
    Королева сердец скачать торрент в хорошем качестве
    Королева сердец смотреть онлайн бесплатно в хорошем качестве


    Вы не можете начинать темы
    Вы не можете отвечать на сообщения
    Вы не можете редактировать свои сообщения
    Вы не можете удалять свои сообщения
    Вы не можете голосовать в опросах
    Вы не можете прикреплять файлы к сообщениям
    Вы можете скачивать файлы