Ссылка на приватное зеркало нашего сайта всего за 1$. Внимание количество ограничено!!!

2 сезон

iTunes

1 сезон

1

2 сезон

2 сезон

iTunes

1 сезон

RePack

30

Ultimate

ВАЖНО

ИГРА 18+

pack

RePack

MK11
pack

Забери бонус

RePack

jed

!!Акция!!

Alien_Rage

RePack

fifa19

RePack

Assassins Creed: Odyssey

RePack

NEED FOR SPEED™ PAYBACK

4 сезон

9 сезон

Бесстыжие 9 сезон

Все сериалы

все сериалы на PB.wtf

RePack

FAR CRY 5
  

Ибица / Ibiza (Арно Лемор) [2019, комедия, WEB-DL 720p] DUB [iTunes] pb.wtf

Ибица через торрент pb.wtf

Раздают: 1 [ 0 KB/s ]
Размер: 2.66 GB | Добавлен: 1 год назад | Торрент скачан:141 раз
Скачать  

14-07-2019 15:33 Ибица Скачать торрент  

Ибица / Ibiza
Год выпуска: 2019
Страна: Франция, Бельгия
Жанр: комедия
Продолжительность: 01:26:03
Перевод: Дублированный | iTunes
Субтитры: отсутствуют

Режиссер: Арно Лемор

rating

В ролях: Кристиан Клавье, Халид Самата, Матильда Сенье, Леопольд Бухсбаум, Пили Груан, Джои Старр, Оливье Маршаль, Фредерик Бель, Луи-До де Ланкесэ, Виктор Уэртас

Описание: Консервативный доктор-ортопед Филипп пытается расположить к себе двух детей-подростков своей новой возлюбленной. Он решает провести вместе с ними семейный отпуск у моря, и молодежь выбирает Ибицу, где любителю тихого отдыха придется непросто.

Качество: WEB-DL 720p
Формат: MKV

Видео: MPEG-4 AVC, 4037 Кбит/с, 1280x536, 24 fps
Аудио: 48.0 kHz, AC3 Dolby Digital, 3/2 (L,C,R,l,r) + LFE ch, ~384 kbps
скриншот  скриншот  скриншот  скриншот  

Общее
Уникальный идентификатор : 200197066145077459783901865921979341811 (0x969C8D6D26142C06BBBE63199357DBF3)
Полное имя : Ibiza.2019.WEB.DL.720p.ELEKTRI4KA.UNIONGANG.mkv
Формат : Matroska
Версия формата : Version 4
Размер файла : 2,66 Гбайт
Продолжительность : 1 ч. 26 м.
Общий поток : 4423 Кбит/сек
Дата кодирования : UTC 2019-11-06 10:48:29
Программа кодирования : mkvmerge v8.3.0 ('Over the Horizon') 64bit
Библиотека кодирования : libebml v1.3.1 + libmatroska v1.4.2

Видео
Идентификатор : 1
Формат : AVC
Формат/Информация : Advanced Video Codec
Профиль формата : Main@L3.1
Настройки формата : 2 Ref Frames
Параметр CABAC формата : Нет
Параметр RefFrames формата : 2 кадра
Параметр GOP формата : N=1
Идентификатор кодека : V_MPEG4/ISO/AVC
Продолжительность : 1 ч. 26 м.
Битрейт : 4037 Кбит/сек
Ширина : 1280 пикселей
Высота : 536 пикселей
Соотношение сторон : 2,40:1
Режим частоты кадров : Постоянный
Частота кадров : 24,000 кадра/сек
Цветовое пространство : YUV
Субдискретизация насыщенности : 4:2:0
Битовая глубина : 8 бит
Тип развёртки : Прогрессивная
Бит/(Пиксели*Кадры) : 0.245
Размер потока : 2,43 Гбайт (91%)
Заголовок : iTunes
Язык : English
Default : Да
Forced : Нет
Цветовой диапазон : Limited
Основные цвета : BT.709
Характеристики трансфера : BT.709
Коэффициенты матрицы : BT.709

Аудио
Идентификатор : 2
Формат : AC-3
Формат/Информация : Audio Coding 3
Коммерческое название : Dolby Digital
Идентификатор кодека : A_AC3
Продолжительность : 1 ч. 26 м.
Вид битрейта : Постоянный
Битрейт : 384 Кбит/сек
Каналы : 6 каналов
Channel layout : L R C LFE Ls Rs
Частота : 48,0 КГц
Частота кадров : 31,250 кадров/сек (1536 SPF)
Битовая глубина : 16 бит
Метод сжатия : С потерями
Размер потока : 236 Мбайт (9%)
Заголовок : ELEKTRI4KA.UNIONGANG
Язык : Russian
ServiceKind/String : Complete Main
Default : Да
Forced : Нет

Меню
00:00:00.000 : en:Глава 1
00:07:25.583 : en:Глава 2
00:15:43.499 : en:Глава 3
00:23:25.414 : en:Глава 4
00:30:25.454 : en:Глава 5
00:37:36.579 : en:Глава 6
00:44:49.537 : en:Глава 7
00:51:29.745 : en:Глава 8
00:58:36.370 : en:Глава 9
01:04:48.870 : en:Глава 10
01:12:46.786 : en:Глава 11
01:17:40.661 : en:Глава 12
pb.wtf



Скачать Ибица через торрент https://i3.imageban.ru/out/2019/11/06/0d341d240865b2cfdabd6b40737a48a5.png Скачать фильм Ибица через торрент бесплантно в хорошем качестве Описание: Консервативный доктор-ортопед Филипп пытается расположить к себе двух детей-подростков своей новой возлюбленной. Он решает ... 10 10 6
Торрент: Зарегистрирован [2019-11-06 19:30] · скачан: 141 раз
Статус: √ проверено
Размер: 2.66 GB
Как cкачать? Как скачать Ибица через торрент | qTorrent

% Раздел Тема Автор DL S | L
Фильмы [HD 720p, 1080p] (Хороший звук DUB, MVO) [ 7.68 GB ] Ибица / Ibiza [2019 BDRip 1080p] bober100 Скачать
1 | 0
Фильмы 2019-2020 [DVDrip, WEB-DLRip, HDrip] (DUB, MVO) [ 1.42 GB ] Ибица / Ibiza [2019 BDRip] - Twi7ter Скачать
11 | 0
Фильмы (Blu-ray, BD-Remux, HDDVD) [ 21.02 GB ] Ибица / Ibiza [2019 BD Remux 1080p] bober100 Скачать
1 | 0
Фильмы 2019-2020 [DVDrip, WEB-DLRip, HDrip] (DUB, MVO) [ 1.42 GB ] Ибица / Ibiza [2019 BDRip] bober100 Скачать
2 | 0
Фильмы (WEB-DL 720p, 1080p) [ 3.05 GB ] Ибица / Ibiza [2019 WEB-DL 1080p] bober100 Скачать
1 | 0
Порно фильмы HD [ 8.03 GB ] Анальные Омара на Ибице / Private Specials 79: Omar's Anal Adventures In Ibiza [2013 All Sex Anal. WEB-DL 1080p Оригинал] nn99nn Скачать
1 | 0
Порно фильмы с сюжетом [ 749 MB ] Поездка на Ибицу 1 / Cumming to Ibiza 1 [1995 Feature Foreign Straight Oral All Sex VHSRip 368p] sheker187 Скачать
1 | 0

28-11-2019 20:33  

Отключить всю рекламу на сайте

    Дорогой пользователь! Огромная просьба, поблагодарите релизера, оцените раздачу и оставьте свои комментарий, если Вы скачали Ибица через торрент бесплатно! Внесите свою лепту в развитие PiratBit!
    Комментировать посты могут только пользователи прошедшие не сложную регистрацию
    Показать сообщения:    

    Ибица через торрент
    Скачать бесплатно Ибица
    Ибица скачать торрент
    Ибица смотреть онлайн
    Cкачать фильм Ибица бесплатно
    Ибица скачать торрент в хорошем качестве
    Ибица смотреть онлайн бесплатно в хорошем качестве


    Вы не можете начинать темы
    Вы не можете отвечать на сообщения
    Вы не можете редактировать свои сообщения
    Вы не можете удалять свои сообщения
    Вы не можете голосовать в опросах
    Вы не можете прикреплять файлы к сообщениям
    Вы можете скачивать файлы